Доктор Стрэндж

Лицензия

Добыча

MVO

Дом дракона

1 сезон

Тор

Лицензия

Мэверик

Лицензия

Там, где раки поют

MVO

Властелин колец

1 сезон

Ultimate

pack

Рекомендуем

30

Repack

ВАЖНО

ВАЖНО

Ghostwire

RePack

jed

RePack

nioh2

RePack

RDR2

RePack

NEED FOR SPEED™ PAYBACK

RePack

скачать торрент

Кинопоиск HD

Острые козырьки 6 сезон

6 сезон

FAR CRY 6

RePack

скачать торрент

Лицензия

скачать торрент

MVO

1

1 сезон

скачать торрент

1 сезон

скачать торрент

Лицензия

  

Дылды / Сезон: 3 / Серии: 1-17 из 17 (Сергей Сенцов) [2022, Комедия, спорт, SATRip]

Дылды через торрент piratbit.org

Раздают: 4 [ 0 KB/s ] Качают: 1 [ 0 KB/s ]
Размер: 5.23 GB | Добавлен: 1 мес. 1 д. назад | Торрент скачан:29 раз
Смотреть онлайн Дылды | Скачать   

08-08-2022 14:49 Дылды Скачать торрент  

Дылды 3
Год выпуска: 2022
Страна: Россия
Выпущено: Art Pictures Vision при креативном сопровождении Episode Production
Жанр: Комедия, спорт
Продолжительность: ~ 00:25:00 (Серия)
Субтитры: отсутствуют

Режиссер: Фёдор Стуков



В ролях: Павел Деревянко, Максим Лагашкин, Анастасия Стежко, Полина Ауг, Дарья Урсуляк, Татьяна Орлова, Сергей Рубеко, Анатолий Горячев, Анна Антонова, Ангелина Поплавская, Дмитрий Караневский, Дарья Пицик, Изабель Эйдлен, Надежда Карпова, Мария Тухарь, Сергей Волков (IX), Александр Андриенко

Описание: В новых сериях Михаил Ковалёв предстанет перед зрителем в неожиданном облике. Некогда уверенный и амбициозный тренер не справляется с жизненными трудностями и изрядно набирает в весе. Чтобы вернуться в строй, он вынужден обратиться к психотерапевту Льву и взяться за женскую команду по пляжному волейболу. Начать новую жизнь грубияну и сексисту мешает второй тренер команды — феминистка Лера.

Качество: SATRip
Формат: AVI

Видео: XviD, ~ 1650 Кбит/с, 720x400
Аудио: MP3, 2 ch, 192 Кбит/с
скриншот  скриншот  скриншот  скриншот  

Общее
Полное имя : D:Dyldy.S03.XviD.SATRip.25Kuzmich\Dyldy.s03.e01.XviD.SATRip.25Kuzmich.avi
Формат : AVI
Формат/Информация : Audio Video Interleave
Размер файла : 311 Мбайт
Продолжительность : 23 м. 30 с.
Общий поток : 1 852 Кбит/сек
Программа кодирования : VirtualDubMod 1.5.10.3 | www.virtualdub-fr.org || (build 2550/release)
Библиотека кодирования : VirtualDubMod build 2550/release

Видео
Идентификатор : 0
Формат : MPEG-4 Visual
Профиль формата : Advanced Simple@L5
Настройки формата : BVOP1
Параметр BVOP формата : 1
Параметр QPel формата : Нет
Параметр GMC формата : Без точки перехода
Параметр матрицы формата : Default (MPEG)
Идентификатор кодека : XVID
Идентификатор кодека/Подсказка : XviD
Продолжительность : 23 м. 30 с.
Битрейт : 1 677 Кбит/сек
Ширина : 720 пикселей
Высота : 400 пикселей
Соотношение сторон : 16:9
Частота кадров : 25,000 кадров/сек
Цветовое пространство : YUV
Субдискретизация насыщенности : 4:2:0
Битовая глубина : 8 бит
Тип развёртки : Прогрессивная
Метод сжатия : С потерями
Бит/(Пиксели*Кадры) : 0.219
Размер потока : 265 Мбайт (85%)
Библиотека кодирования : XviD 73

Аудио
Идентификатор : 1
Формат : MPEG Audio
Версия формата : Version 1
Профиль формата : Layer 3
Настройки формата : Joint stereo / MS Stereo
Идентификатор кодека : 55
Идентификатор кодека/Подсказка : MP3
Продолжительность : 23 м. 30 с.
Вид битрейта : Постоянный
Битрейт : 192 Кбит/сек
Каналы : 2 канала
Частота : 48,0 КГц
Частота кадров : 41,667 кадра/сек (1152 SPF)
Метод сжатия : С потерями
Размер потока : 32,3 Мбайт (10%)
Выравнивание : Соединение по промежуткам
Библиотека кодирования : LAME3.99r
Настройки программы : -m j -V 4 -q 2 -lowpass 18.6 -b 192

Внимание! Раздача ведётся путём добавления новых серий; при каждом добавлении создаётся новый торрент.
Чтобы начать докачку новой серии, пользователям необходимо сделать следующее:
1. Остановить скачивание;
2. Удалить старый торрент у себя из клиента (старые серии удалять не надо);
3. Скачать новый торрент и запустить его у себя в клиенте вместо старого, при этом указать клиенту путь в старую папку куда и должно происходить скачивание новых серий. Ваш клиент при этом должен произвести хеширование (проверку) старой папки и будет докачивать только те серии, которых у вас ещё нет. Старые серии при этом не удаляются, а продолжают раздаваться! Eсли вы уже удалили старые серии, то предотвратить повторную закачку старых серий можно, отжав галочку в соответствующих местах при запуске нового торрента.



Скачать Дылды через торрент http://i120.fastpic.org/big/2022/0808/e2/1a4a1ff80733c1e23ca000f430bde0e2.jpg Скачать, смотреть онлайн Дылды бесплантно в хорошем качестве Описание: В новых сериях Михаил Ковалёв предстанет перед зрителем в неожиданном облике. Некогда уверенный и амбициозный тренер не ... 3.5 10 25
Торрент: Зарегистрирован [2022-09-01 10:28] · скачан: 29 раз
Статус: √ проверено
Размер: 5.23 GB
Как cкачать? Как скачать Дылды через торрент | UTorrent

% Раздел Тема Автор DL S | L
Наши сериалы [ 11.95 GB ] Дылды / Сезон: 3 / Серии: 1-17 из 17 | | 1080p bober100 Скачать
13 | 1
Наши сериалы [ 5.15 GB ] Дылды / Сезон: 3 / Серии: 1-17 из 17 | | DLRip-AVC bober100 Скачать
4 | 2
Наши сериалы [ 5.81 GB ] Дылды / Сезон: 3 / Серии: 1-17 из 17 | | DLRip bober100 Скачать
7 | 0
Наши сериалы [ 13.2 GB ] Дылды / Сезон: 2 / Серии: 1-21 из 21 | | 1080p bober100 Скачать
3 | 0
Наши сериалы [ 6.43 GB ] Дылды / Сезон: 2 / Серии: 1-21 из 21 | | DLRip-AVC bober100 Скачать
4 | 0
Наши сериалы [ 7.84 GB ] Дылды / Сезон: 2 / Серии: 1-21 из 21 | | 720p bober100 Скачать
1 | 4
Наши сериалы [ 6.32 GB ] Дылды / Сезон: 1 / Серии: 1-21 из 21 | | DLRip-AVC bober100 Скачать
3 | 0



Последний раз редактировалось: bober100 (2022-09-01 10:28), всего редактировалось 10 раз(а)

28-11-2019 20:33  

Отключить вcю реклaмy на сайте

13-08-2022 16:45 Дылды Скачать торрент  




    Дорогой пользователь! Огромная просьба, поблагодарите релизера, оцените раздачу и оставьте свои комментарий, если Вы скачали Дылды через торрент бесплатно!!
    Комментировать посты могут только пользователи прошедшие не сложную регистрацию
    Показать сообщения:    


    Дылды через торрент
    Скачать бесплатно Дылды
    Дылды скачать торрент
    Дылды смотреть онлайн
    Cкачать фильм Дылды бесплатно
    Дылды скачать торрент в хорошем качестве
    Дылды смотреть онлайн бесплатно в хорошем качестве
    Вы не можете начинать темы
    Вы не можете отвечать на сообщения
    Вы не можете редактировать свои сообщения
    Вы не можете удалять свои сообщения
    Вы не можете голосовать в опросах
    Вы не можете прикреплять файлы к сообщениям
    Вы можете скачивать файлы