Доктор Стрэндж

Лицензия

Добыча

MVO

Дом дракона

1 сезон

Тор

Лицензия

Мэверик

Лицензия

Там, где раки поют

MVO

Властелин колец

1 сезон

Ultimate

pack

Рекомендуем

30

Repack

ВАЖНО

ВАЖНО

Ghostwire

RePack

jed

RePack

nioh2

RePack

RDR2

RePack

NEED FOR SPEED™ PAYBACK

RePack

скачать торрент

Кинопоиск HD

Острые козырьки 6 сезон

6 сезон

FAR CRY 6

RePack

скачать торрент

Лицензия

скачать торрент

MVO

1

1 сезон

скачать торрент

1 сезон

скачать торрент

Лицензия

  

Дылды / Сезон: 3 / Серии: 1-17 из 17 (Сергей Сенцов) [2022, Комедия, спор, WEB-DL 1080p]

Дылды через торрент piratbit.org

Раздают: 8 [ 21 KB/s ] Качают: 1 [ 0 KB/s ]
Размер: 11.95 GB | Добавлен: 1 мес. 1 д. назад | Торрент скачан:83 раза
Смотреть онлайн Дылды | Скачать   

08-08-2022 16:33 Дылды Скачать торрент  

Дылды 3
Год выпуска: 2022
Страна: Россия
Выпущено: Art Pictures Vision при креативном сопровождении Episode Production
Жанр: Комедия, спорт
Продолжительность: ~ 00:24:00 (Серия)
Субтитры: отсутствуют

Режиссер: Фёдор Стуков



В ролях: Павел Деревянко, Максим Лагашкин, Анастасия Стежко, Полина Ауг, Дарья Урсуляк, Татьяна Орлова, Сергей Рубеко, Анатолий Горячев, Анна Антонова, Ангелина Поплавская, Дмитрий Караневский, Дарья Пицик, Изабель Эйдлен, Надежда Карпова, Мария Тухарь, Сергей Волков, Александр Андриенко, Маргарита Бугаева, Ольга Нестерова, Сергей Дьяков, Андрей Козлов, Евгений Пилипенко, Гульнара Нижинская, Алексей Сатирский, Роман Лелюх, Кирилл Морозов, Ника Лёвкина, Мария Федорко, Наталья Жернакова, Татьяна Смирнова, Андрей Кузнецов, Руслан Вавилов, Дмитрий Румянцев, Виктор Виноградов

Описание: В третьем сезоне амбициозному, но сложному специалисту Ковалеву снова придется тренировать девушек. Уход из предыдущего клуба дается тренеру нелегко, и помочь ему могут только психотерапия и волейбол: на этот раз - пляжный. Но заново обрести уверенность в себе - непростая задача, тем более с таким напарником, как Лера - второй тренер команды и ярая феминистка. И именно ей предстоит поставить под сомнение все принципы неисправимого Ковалева.

Качество: WEB-DL 1080p
Формат: MKV

Видео: MPEG-4 AVC, 1920x1080, ~ 3800 Кбит/с, 0.073 bit/pixel, 25 Кадр/с
Аудио: 48.0 kHz, AC3 Dolby Digital, 2/0 (L,R) ch, ~ 192 kbps
скриншот  скриншот  скриншот  скриншот  скриншот  скриншот  

Общее
Уникальный идентификатор : 6375891260297328637705581584886875033 (0x4CBF3B59E783D6B9F001F2179114399)
Полное имя : D:\Dyldy.S03.2022.WEB-DL.1080p\Dyldy.S03.E01.2022.WEB-DL.1080p.mkv
Формат : Matroska
Версия формата : Version 4
Размер файла : 685 Мбайт
Продолжительность : 24 м. 7 с.
Общий поток : 3 968 Кбит/сек
Название фильма : Dyldy.S03.E01.2022.WEB-DL.1080p
Дата кодирования : UTC 2022-08-08 16:18:17
Программа кодирования : mkvmerge v68.0.0 ('The Curtain') 64-bit
Библиотека кодирования : libebml v1.4.2 + libmatroska v1.6.4
Attachments : poster.jpg

Видео
Идентификатор : 1
Формат : AVC
Формат/Информация : Advanced Video Codec
Профиль формата : High@L4.1
Настройки формата : CABAC / 4 Ref Frames
Параметр CABAC формата : Да
Параметр RefFrames формата : 4 кадра
Параметр GOP формата : M=4, N=50
Идентификатор кодека : V_MPEG4/ISO/AVC
Продолжительность : 24 м. 7 с.
Битрейт : 3 773 Кбит/сек
Ширина : 1 920 пикселей
Высота : 1 080 пикселей
Соотношение сторон : 16:9
Режим частоты кадров : Постоянный
Частота кадров : 25,000 кадров/сек
Стандарт вещания : PAL
Цветовое пространство : YUV
Субдискретизация насыщенности : 4:2:0
Битовая глубина : 8 бит
Тип развёртки : Прогрессивная
Бит/(Пиксели*Кадры) : 0.073
Размер потока : 651 Мбайт (95%)
Default : Да
Forced : Нет
Цветовой диапазон : Limited
Основные цвета : BT.709
Характеристики трансфера : BT.709
Коэффициенты матрицы : BT.709

Аудио
Идентификатор : 2
Формат : AC-3
Формат/Информация : Audio Coding 3
Коммерческое название : Dolby Digital
Идентификатор кодека : A_AC3
Продолжительность : 24 м. 7 с.
Вид битрейта : Постоянный
Битрейт : 192 Кбит/сек
Каналы : 2 канала
Channel layout : L R
Частота : 48,0 КГц
Частота кадров : 31,250 кадров/сек (1536 SPF)
Метод сжатия : С потерями
Размер потока : 33,1 Мбайт (5%)
Service kind : Complete Main
Default : Да
Forced : Нет

Внимание! Раздача ведётся путём добавления новых серий; при каждом добавлении создаётся новый торрент.
Чтобы начать докачку новой серии, пользователям необходимо сделать следующее:
1. Остановить скачивание;
2. Удалить старый торрент у себя из клиента (старые серии удалять не надо);
3. Скачать новый торрент и запустить его у себя в клиенте вместо старого, при этом указать клиенту путь в старую папку куда и должно происходить скачивание новых серий. Ваш клиент при этом должен произвести хеширование (проверку) старой папки и будет докачивать только те серии, которых у вас ещё нет. Старые серии при этом не удаляются, а продолжают раздаваться! Eсли вы уже удалили старые серии, то предотвратить повторную закачку старых серий можно, отжав галочку в соответствующих местах при запуске нового торрента.



Скачать Дылды через торрент https://i120.fastpic.org/big/2022/0808/0d/4f85aa0684e939f504a0f12eb8435b0d.jpg Скачать, смотреть онлайн Дылды бесплантно в хорошем качестве Описание: В третьем сезоне амбициозному, но сложному специалисту Ковалеву снова придется тренировать девушек. Уход из предыдущего клуба ... 5 10 34
Info! Золотая раздача, скачанное не засчитывается.
Торрент: Зарегистрирован [2022-09-01 09:44] · скачан: 83 раз
Статус: √ проверено
Размер: 11.95 GB
Как cкачать? Как скачать Дылды через торрент | UTorrent

% Раздел Тема Автор DL S | L
Наши сериалы [ 5.23 GB ] Дылды / Сезон: 3 / Серии: 1-17 из 17 | | SATRip bober100 Скачать
5 | 2
Наши сериалы [ 5.15 GB ] Дылды / Сезон: 3 / Серии: 1-17 из 17 | | DLRip-AVC bober100 Скачать
5 | 3
Наши сериалы [ 5.81 GB ] Дылды / Сезон: 3 / Серии: 1-17 из 17 | | DLRip bober100 Скачать
6 | 1
Наши сериалы [ 13.2 GB ] Дылды / Сезон: 2 / Серии: 1-21 из 21 | | 1080p bober100 Скачать
3 | 0
Наши сериалы [ 6.43 GB ] Дылды / Сезон: 2 / Серии: 1-21 из 21 | | DLRip-AVC bober100 Скачать
4 | 0
Наши сериалы [ 7.84 GB ] Дылды / Сезон: 2 / Серии: 1-21 из 21 | | 720p bober100 Скачать
1 | 2
Наши сериалы [ 6.32 GB ] Дылды / Сезон: 1 / Серии: 1-21 из 21 | | DLRip-AVC bober100 Скачать
3 | 0



Последний раз редактировалось: bober100 (2022-09-01 09:44), всего редактировалось 5 раз(а)

28-11-2019 20:33  

Отключить вcю реклaмy на сайте

24-08-2022 05:51 Дылды Скачать торрент  

прикольно ..



    Дорогой пользователь! Огромная просьба, поблагодарите релизера, оцените раздачу и оставьте свои комментарий, если Вы скачали Дылды через торрент бесплатно!!
    Комментировать посты могут только пользователи прошедшие не сложную регистрацию
    Показать сообщения:    


    Дылды через торрент
    Скачать бесплатно Дылды
    Дылды скачать торрент
    Дылды смотреть онлайн
    Cкачать фильм Дылды бесплатно
    Дылды скачать торрент в хорошем качестве
    Дылды смотреть онлайн бесплатно в хорошем качестве
    Вы не можете начинать темы
    Вы не можете отвечать на сообщения
    Вы не можете редактировать свои сообщения
    Вы не можете удалять свои сообщения
    Вы не можете голосовать в опросах
    Вы не можете прикреплять файлы к сообщениям
    Вы можете скачивать файлы