Доктор Стрэндж

Лицензия

Добыча

MVO

Дом дракона

1 сезон

Тор

Лицензия

Мэверик

Лицензия

Там, где раки поют

MVO

Властелин колец

1 сезон

Ultimate

pack

Рекомендуем

30

Repack

ВАЖНО

ВАЖНО

Ghostwire

RePack

jed

RePack

nioh2

RePack

RDR2

RePack

NEED FOR SPEED™ PAYBACK

RePack

скачать торрент

Кинопоиск HD

Острые козырьки 6 сезон

6 сезон

FAR CRY 6

RePack

скачать торрент

Лицензия

скачать торрент

MVO

1

1 сезон

скачать торрент

1 сезон

скачать торрент

Лицензия

  

Быстрее пули / Bullet Train (Дэвид Литч) [2022, Боевик, триллер, комедия, TS-AVC] DUB [TS]

Быстрее пули через торрент piratbit.org

Раздают: 13 [ 0 KB/s ] Качают: 2 [ 22 KB/s ]
Размер: 2.17 GB | Добавлен: 1 мес. 12 д. назад | Торрент скачан:656 раз
Смотреть онлайн Быстрее пули | Скачать   

22-08-2022 09:04 Быстрее пули Скачать торрент  

Быстрее пули
Bullet Train

Год выпуска: 2022
Страна: США
Выпущено: 87North, CTB Inc.Hill District Media
Жанр: Боевик, триллер, комедия
Продолжительность: 02:02:05
Перевод: Дублированное | TS
Субтитры: Русские (Forced)

Режиссер: Дэвид Литч

rating

В ролях: Сандра Буллок, Брэд Питт, Зази Битц, Джои Кинг, Аарон Тейлор-Джонсон, Логан Лерман, Майкл Шеннон (II), Карен Фукухара, Хироюки Санада, Брайан Тайри Генри

Описание: Пятеро наёмных убийц оказываются в одном сверхскоростном экспрессе. Они узнают, что их миссии связаны, и пытаются выяснить, кто и зачем собрал их вместе.

Качество: TS-AVC
Формат: MKV

Видео: MPEG-4 AVC, 2100 Kb/s, 1152x416
Аудио #1: Russian: 48 kHz, AC3 Dolby Digital, 2/0 (L, R) ch, ~224 Kbps | DUB | TS
Аудио #2: Russian: 48 kHz, AC3 Dolby Digital, 2/0 (L, R) ch, ~224 Kbps | Original
скриншот  скриншот  скриншот  скриншот  

скриншот  скриншот  скриншот  скриншот  

Complete name : Bullet.Train.2022.TS.Rus.Dub.DD.2.0.mkv
Format : Matroska
Format version : Version 4 / Version 2
File size : 2.17 GiB
Duration : 2 h 2 min
Overall bit rate : 2 550 kb/s
Encoded date : UTC 2022-08-21 11:23:27
Writing application : mkvmerge v64.0.0 ('Willows') 64-bit
Writing library : libebml v1.4.2 + libmatroska v1.6.4

Video
ID : 1
Format : AVC
Format/Info : Advanced Video Codec
Format profile : High@L4.1
Format settings : CABAC / 16 Ref Frames
Format settings, CABAC : Yes
Format settings, ReFrames : 16 frames
Codec ID : V_MPEG4/ISO/AVC
Duration : 2 h 2 min
Bit rate : 2 100 kb/s
Width : 1 152 pixels
Height : 416 pixels
Display aspect ratio : 2.769
Frame rate mode : Constant
Frame rate : 24.000 FPS
Color space : YUV
Chroma subsampling : 4:2:0
Bit depth : 8 bits
Scan type : Progressive
Bits/(Pixel*Frame) : 0.183
Stream size : 1.79 GiB (82%)
Writing library : x264 core 148 r2638 7599210
Encoding settings : cabac=1 / ref=16 / deblock=1:0:0 / analyse=0x3:0x113 / me=umh / subme=10 / psy=1 / psy_rd=1.00:0.00 / mixed_ref=1 / me_range=32 / chroma_me=1 / trellis=2 / 8x8dct=1 / cqm=0 / deadzone=21,11 / fast_pskip=1 / chroma_qp_offset=-2 / threads=12 / lookahead_threads=3 / sliced_threads=0 / nr=0 / decimate=1 / interlaced=0 / bluray_compat=0 / constrained_intra=0 / bframes=16 / b_pyramid=2 / b_adapt=2 / b_bias=0 / direct=3 / weightb=1 / open_gop=0 / weightp=2 / keyint=250 / keyint_min=23 / scenecut=40 / intra_refresh=0 / rc_lookahead=60 / rc=2pass / mbtree=1 / bitrate=2100 / ratetol=1.0 / qcomp=0.60 / qpmin=0 / qpmax=69 / qpstep=4 / cplxblur=20.0 / qblur=0.5 / ip_ratio=1.40 / aq=1:1.00
Default : Yes
Forced : No
Color range : Limited
Color primaries : BT.709
Transfer characteristics : BT.709
Matrix coefficients : BT.709

Audio #1
ID : 2
Format : AC-3
Format/Info : Audio Coding 3
Codec ID : A_AC3
Duration : 2 h 2 min
Bit rate mode : Constant
Bit rate : 224 kb/s
Channel(s) : 2 channels
Channel positions : Front: L R
Sampling rate : 48.0 kHz
Frame rate : 31.250 FPS (1536 SPF)
Bit depth : 16 bits
Compression mode : Lossy
Stream size : 196 MiB (9%)
Title : Rus. Dub. AC3. 2.0. 224
Language : Russian
Service kind : Complete Main
Default : Yes
Forced : No

Audio #2
ID : 3
Format : AC-3
Format/Info : Audio Coding 3
Codec ID : A_AC3
Duration : 2 h 2 min
Bit rate mode : Constant
Bit rate : 224 kb/s
Channel(s) : 2 channels
Channel positions : Front: L R
Sampling rate : 48.0 kHz
Frame rate : 31.250 FPS (1536 SPF)
Bit depth : 16 bits
Compression mode : Lossy
Stream size : 196 MiB (9%)
Title : Eng. AC3. 2.0. 224
Language : English
Service kind : Complete Main
Default : No
Forced : No

Text
ID : 4
Format : UTF-8
Codec ID : S_TEXT/UTF8
Codec ID/Info : UTF-8 Plain Text
Duration : 1 h 58 min
Bit rate : 3 b/s
Count of elements : 64
Stream size : 2.60 KiB (0%)
Title : Forsed. Ru
Language : Russian
Default : Yes
Forced : No

!bober100 писал(а):


Рекламы нет!!!



Скачать Быстрее пули через торрент https://i120.fastpic.org/big/2022/0821/8e/18c457b3893c4d944729f097d866198e.jpg Скачать, смотреть онлайн Быстрее пули бесплантно в хорошем качестве Описание: Пятеро наёмных убийц оказываются в одном сверхскоростном экспрессе. Они узнают, что их миссии связаны, и пытаются выяснить, кто и ... 9.4 10 25
Info! Золотая раздача, скачанное не засчитывается.
Торрент: Зарегистрирован [2022-08-22 09:04] · скачан: 656 раз
Статус: T временная
Размер: 2.17 GB
Как cкачать? Как скачать Быстрее пули через торрент | UTorrent

% Раздел Тема Автор DL S | L
Фильмы с украинским озвучиванием [ 2.78 GB ] Быстрее пули / Швидкісний поїзд / Bullet Train | DUB | DLRip-AVC killermax2013 Скачать
6 | 0
Фильмы (HD 720p, 1080p) (48-60 fps) [ 4.05 GB ] Быстрее пули / Bullet Train | NewComers | DLRip 720p / 60 FPS, NewComers slaventi-69 Скачать
16 | 0
Фильмы 2022 [DVDrip, WEB-DLRip, HDrip] (DUB, MVO) [ 1.46 GB ] Быстрее пули / Bullet Train | NewComers | DLRip bober100 Скачать
34 | 0
Фильмы 2022 [DVDrip, WEB-DLRip, HDrip] (DUB, MVO) [ 2.18 GB ] Быстрее пули / Bullet Train | NewComers | DLRip bober100 Скачать
27 | 0
Фильмы (WEB-DL 720p, 1080p) [ 8.43 GB ] Быстрее пули / Bullet Train | NewComers | 1080p bober100 Скачать
52 | 0

28-11-2019 20:33  

Отключить вcю реклaмy на сайте

22-08-2022 12:10 Быстрее пули Скачать торрент  

тээска обалденная.фильм прикольный-в стиле тарантино.пит молодец.все здорово.спасибо.






Последний раз редактировалось: SASHA66 (2022-08-22 12:46), всего редактировалось 1 раз

22-08-2022 12:33 Быстрее пули Скачать торрент  

Фильм хороший.Только качество звука хотелось получше.Подождём



22-08-2022 17:20 Быстрее пули Скачать торрент  

Давно не смотрел такого классного кинца. +5 в карму всем актерам и режиссеру. Со звуком вроде норм все.



23-08-2022 19:50 Быстрее пули Скачать торрент  

неожиданно, прикольно, похоже на Гая Ричи и его фильмы, супер роль у ченнига и наконец-то отлично отыграл, с Сандрой тоже без промажек, намазана она как мёртвая баба при смерти)



01-09-2022 19:53 Быстрее пули Скачать торрент  

Согласен, фильм прикольный.
С юморком.
С физикой и аэродинамикой малость перебрали, но это можно простить на фоне остального )



21-09-2022 20:23 Быстрее пули Скачать торрент  

Фильм может и хорош, но ни по картинке, ни тем более по звуку смотреть невозможно.



22-09-2022 21:18 Быстрее пули Скачать торрент  

ну подождём тогда качества .Спс за отзывы



    Дорогой пользователь! Огромная просьба, поблагодарите релизера, оцените раздачу и оставьте свои комментарий, если Вы скачали Быстрее пули через торрент бесплатно!!
    Комментировать посты могут только пользователи прошедшие не сложную регистрацию
    Показать сообщения:    


    Быстрее пули через торрент
    Скачать бесплатно Быстрее пули
    Быстрее пули скачать торрент
    Быстрее пули смотреть онлайн
    Cкачать фильм Быстрее пули бесплатно
    Быстрее пули скачать торрент в хорошем качестве
    Быстрее пули смотреть онлайн бесплатно в хорошем качестве
    Вы можете начинать темы
    Вы можете отвечать на сообщения
    Вы не можете редактировать свои сообщения
    Вы не можете удалять свои сообщения
    Вы не можете голосовать в опросах
    Вы не можете прикреплять файлы к сообщениям
    Вы можете скачивать файлы