Доктор Стрэндж

Лицензия

Добыча

MVO

Дом дракона

1 сезон

Тор

Лицензия

Мэверик

Лицензия

Там, где раки поют

MVO

Властелин колец

1 сезон

Ultimate

pack

Рекомендуем

30

Repack

ВАЖНО

ВАЖНО

Ghostwire

RePack

jed

RePack

nioh2

RePack

RDR2

RePack

NEED FOR SPEED™ PAYBACK

RePack

скачать торрент

Кинопоиск HD

Острые козырьки 6 сезон

6 сезон

FAR CRY 6

RePack

скачать торрент

Лицензия

скачать торрент

MVO

1

1 сезон

скачать торрент

1 сезон

скачать торрент

Лицензия

  

Семейка монстров / Petit vampire (Жоанн Сфар) [2020, Мультфильм, ужасы, фэнтези, семейный, BDRip 1080p] MVO [Кинопоиск HD]

Семейка монстров через торрент piratbit.org

Раздают: 10 [ 3 MB/s ]
Размер: 7.24 GB | Добавлен: 1 д. 6 ч. назад | Торрент скачан:20 раз
Смотреть онлайн Семейка монстров | Скачать   

25-08-2022 01:12 Семейка монстров Скачать торрент  

Семейка монстров
Petit vampire

Год выпуска: 2020
Страна: Франция, Бельгия
Выпущено: Canal+ [fr], Centre National de la Cinématographie (CNC), Ciné, Cofinova 11, Cofinova 13, La Compagnie Cinématographique, France 3 Cinéma, France Télévision, Joann Sfar's Magical Society, La Direction de L'Audiovisual de Communaute Francaise de Belgique, ON Animation Studios, Panache Productions, Proximus, Région de Bruxelles-Capitale, Région Ile-de-France, Radio Télévision Belge Francofone (RTBF), Studio Canal, Tax Shelter de Movie Tax Invest
Жанр: Мультфильм, ужасы, фэнтези, семейный
Продолжительность: 01:21:52
Перевод: Профессиональный (многоголосый) | Кинопоиск HD
Субтитры: отсутствуют

Режиссер: Жоанн Сфар

rating

В ролях: Камилль Коттен, Луиз Лакост, Жан-Поль Рув, Клер де ла Рю дю Кан, Алекс Лутц, Квентин Форе, Рикардо Ло Джудиче, Венсан Вермингтон, Жоанн Сфар, Мара Такин

Описание: Маленький вампир имеет внешность и разум десятилетнего ребенка, хотя ему уже 300 лет. Он живет в доме с привидениями и веселыми монстрами, но ему скучно до смерти. Он мечтает ходить в школу, чтобы общаться другими детьми, но родители не разрешают ему выходить из дома. Вместе со своим псом Фантомато он тайно выбирается наружу в поисках новых друзей. У него появляется настоящий друг Майкл, но дружба вампира и человека привлекает внимание не только всей семейки вампиров, но и ужасного Гиббуса — ее старого врага.

Качество: BDRip 1080p
Формат: MKV

Видео: MPEG-4 AVC, 11.6 Mb/s, 1920x1036, 24.000 fps
Аудио #01: 48 kHz, AC3, 5.1, 448 Kbps | КиноПоиск HD | RUS |
Аудио #02: 48 kHz, AC3, 5.1, 640 Kbps | Оригинал | FRA |
скриншот  скриншот  скриншот  скриншот  

Complete name : Semeyka.monstrov.2020.BDRip.1080p.ELEKTRI4KA.UNIONGANG.mkv
Format : Matroska
Format version : Version 4
File size : 7.24 GiB
Duration : 1 h 21 min
Overall bit rate : 12.7 Mb/s
Movie name : Semeyka.monstrov.2020.BDRip.1080p.ELEKTRI4KA.UNIONGANG.
Encoded date : UTC 2022-10-01 08:27:02
Writing application : mkvmerge v8.3.0 ('Over the Horizon') 32bit
Writing library : libebml v1.3.1 + libmatroska v1.4.2

Video
ID : 1
Format : AVC
Format/Info : Advanced Video Codec
Format profile : High@L4.1
Format settings : CABAC / 4 Ref Frames
Format settings, CABAC : Yes
Format settings, Reference frames : 4 frames
Codec ID : V_MPEG4/ISO/AVC
Duration : 1 h 21 min
Bit rate : 11.6 Mb/s
Width : 1 920 pixels
Height : 1 036 pixels
Display aspect ratio : 1.85:1
Frame rate mode : Constant
Frame rate : 24.000 FPS
Color space : YUV
Chroma subsampling : 4:2:0
Bit depth : 8 bits
Scan type : Progressive
Bits/(Pixel*Frame) : 0.242
Stream size : 6.62 GiB (91%)
Writing library : x264 core 157 r2958 57baac4
Encoding settings : cabac=1 / ref=4 / deblock=1:-3:-3 / analyse=0x3:0x113 / me=umh / subme=10 / psy=1 / psy_rd=1.00:0.00 / mixed_ref=1 / me_range=32 / chroma_me=1 / trellis=2 / 8x8dct=1 / cqm=0 / deadzone=21,11 / fast_pskip=0 / chroma_qp_offset=-2 / threads=32 / lookahead_threads=5 / sliced_threads=0 / nr=1 / decimate=0 / interlaced=0 / bluray_compat=0 / constrained_intra=0 / bframes=8 / b_pyramid=2 / b_adapt=2 / b_bias=0 / direct=3 / weightb=1 / open_gop=0 / weightp=2 / keyint=240 / keyint_min=24 / scenecut=40 / intra_refresh=0 / rc=2pass / mbtree=0 / bitrate=11576 / ratetol=1.0 / qcomp=0.60 / qpmin=0 / qpmax=69 / qpstep=4 / cplxblur=20.0 / qblur=0.5 / ip_ratio=1.40 / pb_ratio=1.30 / aq=1:1.00
Default : Yes
Forced : No

Audio #1
ID : 2
Format : AC-3
Format/Info : Audio Coding 3
Commercial name : Dolby Digital
Codec ID : A_AC3
Duration : 1 h 21 min
Bit rate mode : Constant
Bit rate : 448 kb/s
Channel(s) : 6 channels
Channel layout : L R C LFE Ls Rs
Sampling rate : 48.0 kHz
Frame rate : 31.250 FPS (1536 SPF)
Compression mode : Lossy
Stream size : 262 MiB (4%)
Title : MVO (KP HD)
Language : Russian
Service kind : Complete Main
Default : Yes
Forced : Yes

Audio #2
ID : 3
Format : AC-3
Format/Info : Audio Coding 3
Commercial name : Dolby Digital
Codec ID : A_AC3
Duration : 1 h 21 min
Bit rate mode : Constant
Bit rate : 640 kb/s
Channel(s) : 6 channels
Channel layout : L R C LFE Ls Rs
Sampling rate : 48.0 kHz
Frame rate : 31.250 FPS (1536 SPF)
Compression mode : Lossy
Stream size : 375 MiB (5%)
Title : Original
Language : French
Service kind : Complete Main
Default : No
Forced : No

Menu
00:00:00.000 : :Chapter 1
00:08:21.875 : :Chapter 2
00:12:39.791 : :Chapter 3
00:19:41.458 : :Chapter 4
00:26:13.458 : :Chapter 5
00:33:12.708 : :Chapter 6
00:40:16.208 : :Chapter 7
00:46:39.208 : :Chapter 8
00:52:48.208 : :Chapter 9
01:00:39.833 : :Chapter 10
01:06:20.791 : :Chapter 11
01:12:17.583 : :Chapter 12
01:21:51.458 : :Chapter 13




Скачать Семейка монстров через торрент https://i120.fastpic.org/big/2022/1001/a8/d12268897431b4607194a3aeb9b99ea8.jpg Скачать, смотреть онлайн Семейка монстров бесплантно в хорошем качестве Описание: Маленький вампир имеет внешность и разум десятилетнего ребенка, хотя ему уже 300 лет. Он живет в доме с привидениями и веселыми ... 10 10 6
Info! Золотая раздача, скачанное не засчитывается.
Торрент: Зарегистрирован [2022-10-01 09:39] · скачан: 20 раз
Статус: √ проверено
Размер: 7.24 GB
Как cкачать? Как скачать Семейка монстров через торрент | UTorrent

% Раздел Тема Автор DL S | L
Иностранные мультфильмы [ 1.46 GB ] Семейка монстров / Petit vampire | Кинопоиск HD | BDRip bober100 Скачать
4 | 1
Иностранные мультфильмы [ 746 MB ] Семейка монстров / Petit vampire | Кинопоиск HD | BDRip bober100 Скачать
1 | 0

28-11-2019 20:33  

Отключить вcю реклaмy на сайте

    Дорогой пользователь! Огромная просьба, поблагодарите релизера, оцените раздачу и оставьте свои комментарий, если Вы скачали Семейка монстров через торрент бесплатно!!
    Комментировать посты могут только пользователи прошедшие не сложную регистрацию
    Показать сообщения:    


    Семейка монстров через торрент
    Скачать бесплатно Семейка монстров
    Семейка монстров скачать торрент
    Семейка монстров смотреть онлайн
    Cкачать фильм Семейка монстров бесплатно
    Семейка монстров скачать торрент в хорошем качестве
    Семейка монстров смотреть онлайн бесплатно в хорошем качестве
    Вы не можете начинать темы
    Вы не можете отвечать на сообщения
    Вы не можете редактировать свои сообщения
    Вы не можете удалять свои сообщения
    Вы не можете голосовать в опросах
    Вы не можете прикреплять файлы к сообщениям
    Вы можете скачивать файлы