Доктор Стрэндж

Лицензия

Добыча

MVO

Дом дракона

1 сезон

Тор

Лицензия

Мэверик

Лицензия

Там, где раки поют

MVO

Властелин колец

1 сезон

Ultimate

pack

Рекомендуем

30

Repack

ВАЖНО

ВАЖНО

Ghostwire

RePack

jed

RePack

nioh2

RePack

RDR2

RePack

NEED FOR SPEED™ PAYBACK

RePack

скачать торрент

Кинопоиск HD

Острые козырьки 6 сезон

6 сезон

FAR CRY 6

RePack

скачать торрент

Лицензия

скачать торрент

MVO

1

1 сезон

скачать торрент

1 сезон

скачать торрент

Лицензия

  

Суперпитомцы / DC League of Super-Pets (Джаред Штерн, Сэм Ливайн) [2022, Мультфильм, фантастика, фэнтези, боевик, комедия, криминал, приключения, семейный, BDRip 1080p] 2xDUB [Лицензия, Red Head Sound] +MVO [Jaskier]

Суперпитомцы через торрент piratbit.org

Раздают: 2 [ 452 KB/s ]
Размер: 7.85 GB | Добавлен: 15 ч. назад | Торрент скачан:13 раз
Смотреть онлайн Суперпитомцы | Скачать   

25-08-2022 16:58 Суперпитомцы Скачать торрент  

Суперпитомцы
DC League of Super-Pets

Год выпуска: 2022
Страна: США
Студия: 7 Bucks Productions, A Stern Talking To, DC Entertainment, Warner Animation Group
Жанр: Мультфильм, фантастика, фэнтези, боевик, комедия, криминал, приключения, семейный
Продолжительность: 01:45:26
Перевод(ы):
#1: Дублированный | Лицензия
#2: Дублированный | Red Head Sound
#3: Профессиональный многоголосый | Jaskier
Субтитры: Русские (Forced, full), английские

Режиссер: Джаред Штерн, Сэм Ливайн

rating

В ролях: Джон Красински, Киану Ривз, Дуэйн Джонсон, Кейт МакКиннон, Кевин Харт, Наташа Лионн, Диего Луна, Ванесса Байер

Описание: Когда неизвестные злодеи похищают всю Лигу справедливости, пес Супермена по имени Крипто, обладающий такими же способностями, как и его хозяин, берет на себя миссию по их спасению. Для этого Крипто собирает команду из суперпитомцев — самых обычных обитателей приюта, которые неожиданно обрели суперсилу. Среди них — сверхсильный бродяга Эйс, способная становиться гигантской свинья ПиБи, супербыстрая черепаха Мертон и бельчонок Чип, метающий электрические разряды. Сможет ли пушистая Лига суперпитомцев спасти Супермена, а заодно и весь мир?

Качество: BDRip 1080p
Формат: MKV

Видео: MPEG-4 AVC, 1920x804, 8613 Kbit/s, 23.976 fps
Аудио #01: 48 kHz, AC3, 5.1, 384 Kbps | Дублированный | Лицензия | RUS |
Аудио #02: 48 kHz, AC3, 5.1, 640 Kbps | Дублированный | Red Head Sound | RUS |
Аудио #03: 48 kHz, AC3, 5.1, 384 Kbps | Профессиональный многоголосый | Jaskier | RUS |
Аудио #04: 48 kHz, AC3, 5.1, 640 Kbps | Оригинал | ENG |
скриншот  скриншот  скриншот  скриншот  скриншот  скриншот  

General
Unique ID : 285498333492848062917154547861269983825 (0xD6C8FA9CC5AAA34AAA158814F7BF3251)
Complete name : E:Video1DC.League.of.Super.Pets.2022.BDRip.1080p.seleZen.mkv
Format : Matroska
Format version : Version 4
File size : 7.85 GiB
Duration : 1 h 45 min
Overall bit rate : 10.7 Mb/s
Movie name : DC League of Super-Pets 2022 from seleZen
Encoded date : UTC 2022-10-03 05:24:59
Writing application : mkvmerge v59.0.0 ('Shining Star') 64-bit
Writing library : libebml v1.4.2 + libmatroska v1.6.4

Video
ID : 1
Format : AVC
Format/Info : Advanced Video Codec
Format profile : High@L4.1
Format settings : CABAC / 5 Ref Frames
Format settings, CABAC : Yes
Format settings, Reference : 5 frames
Codec ID : V_MPEG4/ISO/AVC
Duration : 1 h 45 min
Bit rate : 8 613 kb/s
Width : 1 920 pixels
Height : 804 pixels
Display aspect ratio : 2.40:1
Frame rate mode : Constant
Frame rate : 23.976 (24000/1001) FPS
Color space : YUV
Chroma subsampling : 4:2:0
Bit depth : 8 bits
Scan type : Progressive
Bits/(Pixel*Frame) : 0.233
Stream size : 6.34 GiB (81%)
Title : MTeam
Writing library : x264 core 157 r2938 2b00a84 TnP@MTeam Mod
Encoding settings : cabac=1 / ref=5 / deblock=1:-3:-3 / analyse=0x3:0x133 / me=umh / subme=10 / psy=1 / psy_rd=1.05:0.00 / mixed_ref=1 / me_range=32 / chroma_me=1 / trellis=2 / 8x8dct=1 / cqm=0 / deadzone=21,11 / fast_pskip=0 / chroma_qp_offset=-2 / threads=12 / lookahead_threads=2 / sliced_threads=0 / nr=0 / decimate=0 / interlaced=0 / bluray_compat=0 / constrained_intra=0 / bframes=8 / b_pyramid=2 / b_adapt=2 / b_bias=0 / direct=3 / weightb=1 / open_gop=0 / weightp=2 / keyint=250 / keyint_min=24 / scenecut=40 / intra_refresh=0 / rc_lookahead=250 / rc=crf / mbtree=0 / crf=16.8 / qcomp=0.60 / qpmin=0 / qpmax=69 / qpstep=4 / vbv_maxrate=62500 / vbv_bufsize=78125 / crf_max=0.0 / nal_hrd=none / filler=0 / ip_ratio=1.30 / pb_ratio=1.20 / aq=3:0.80
Language : English
Default : Yes
Forced : No
Color range : Limited
Color primaries : BT.709
Matrix coefficients : BT.709

Audio #1
ID : 2
Format : AC-3
Format/Info : Audio Coding 3
Commercial name : Dolby Digital
Codec ID : A_AC3
Duration : 1 h 45 min
Bit rate mode : Constant
Bit rate : 384 kb/s
Channel(s) : 6 channels
Channel layout : L R C LFE Ls Rs
Sampling rate : 48.0 kHz
Frame rate : 31.250 FPS (1536 SPF)
Compression mode : Lossy
Stream size : 290 MiB (4%)
Title : Dub [License]
Language : Russian
Service kind : Complete Main
Default : Yes
Forced : Yes

Audio #2
ID : 3
Format : AC-3
Format/Info : Audio Coding 3
Commercial name : Dolby Digital
Codec ID : A_AC3
Duration : 1 h 45 min
Bit rate mode : Constant
Bit rate : 640 kb/s
Channel(s) : 6 channels
Channel layout : L R C LFE Ls Rs
Sampling rate : 48.0 kHz
Frame rate : 31.250 FPS (1536 SPF)
Compression mode : Lossy
Stream size : 483 MiB (6%)
Title : Dub [Red Head Sound]
Language : Russian
Service kind : Complete Main
Default : No
Forced : No

Audio #3
ID : 4
Format : AC-3
Format/Info : Audio Coding 3
Commercial name : Dolby Digital
Codec ID : A_AC3
Duration : 1 h 45 min
Bit rate mode : Constant
Bit rate : 384 kb/s
Channel(s) : 6 channels
Channel layout : L R C LFE Ls Rs
Sampling rate : 48.0 kHz
Frame rate : 31.250 FPS (1536 SPF)
Compression mode : Lossy
Stream size : 290 MiB (4%)
Title : MVO [Jaskier]
Language : Russian
Service kind : Complete Main
Default : No
Forced : No

Audio #4
ID : 5
Format : AC-3
Format/Info : Audio Coding 3
Commercial name : Dolby Digital
Codec ID : A_AC3
Duration : 1 h 45 min
Bit rate mode : Constant
Bit rate : 640 kb/s
Channel(s) : 6 channels
Channel layout : L R C LFE Ls Rs
Sampling rate : 48.0 kHz
Frame rate : 31.250 FPS (1536 SPF)
Compression mode : Lossy
Stream size : 483 MiB (6%)
Title : Original
Language : English
Service kind : Complete Main
Default : No
Forced : No

Text #1
ID : 6
Format : UTF-8
Codec ID : S_TEXT/UTF8
Codec ID/Info : UTF-8 Plain Text
Duration : 1 h 28 min
Bit rate : 3 b/s
Frame rate : 0.007 FPS
Count of elements : 36
Stream size : 1.97 KiB (0%)
Title : Forced
Language : Russian
Default : Yes
Forced : Yes

Text #2
ID : 7
Format : UTF-8
Codec ID : S_TEXT/UTF8
Codec ID/Info : UTF-8 Plain Text
Duration : 1 h 43 min
Bit rate : 99 b/s
Frame rate : 0.241 FPS
Count of elements : 1504
Stream size : 76.0 KiB (0%)
Title : Full
Language : Russian
Default : No
Forced : No

Text #3
ID : 8
Format : UTF-8
Codec ID : S_TEXT/UTF8
Codec ID/Info : UTF-8 Plain Text
Duration : 2 s 378 ms
Bit rate : 100 b/s
Frame rate : 0.421 FPS
Count of elements : 1
Stream size : 30.0 Bytes (0%)
Title : Forced
Language : English
Default : No
Forced : No

Text #4
ID : 9
Format : UTF-8
Codec ID : S_TEXT/UTF8
Codec ID/Info : UTF-8 Plain Text
Duration : 2 s 378 ms
Bit rate : 100 b/s
Frame rate : 0.421 FPS
Count of elements : 1
Stream size : 30.0 Bytes (0%)
Title : Full
Language : English
Default : No
Forced : No

Text #5
ID : 10
Format : UTF-8
Codec ID : S_TEXT/UTF8
Codec ID/Info : UTF-8 Plain Text
Duration : 1 h 45 min
Bit rate : 78 b/s
Frame rate : 0.342 FPS
Count of elements : 2158
Stream size : 60.2 KiB (0%)
Title : SDH
Language : English
Default : No
Forced : No

Menu
00:00:00.000 : Chapter 01
00:09:55.553 : Chapter 02
00:17:24.543 : Chapter 03
00:27:24.518 : Chapter 04
00:36:40.990 : Chapter 05
00:46:04.470 : Chapter 06
00:54:03.574 : Chapter 07
01:03:23.466 : Chapter 08
01:12:20.336 : Chapter 09
01:22:15.264 : Chapter 10
01:32:04.894 : Chapter 11
01:38:50.591 : Chapter 12




Скачать Суперпитомцы через торрент https://i120.fastpic.org/big/2022/0825/73/2979bb12e241f05986526ee84c5dd673.jpg Скачать, смотреть онлайн Суперпитомцы бесплантно в хорошем качестве Описание: Когда неизвестные злодеи похищают всю Лигу справедливости, пес Супермена по имени Крипто, обладающий такими же способностями, как ... 8.9 10 18
Торрент: Зарегистрирован [2022-10-03 13:02] · скачан: 13 раз
Статус: √ проверено
Размер: 7.85 GB
Как cкачать? Как скачать Суперпитомцы через торрент | UTorrent

% Раздел Тема Автор DL S | L
Ultra HD (UHD: 2K, 4K, 8K) [ 46.42 GB ] Суперпитомцы / DC League of Super-Pets | Jaskier | 2160p bober100 Скачать
5 | 1
Зарубежные Мультфильмы (BDRip 1080p, 720p, Blu-ray, BD-Remux) [ 24.2 GB ] Суперпитомцы / DC League of Super-Pets | Jaskier | BD Remux 1080p bober100 Скачать
2 | 1
Иностранные мультфильмы [ 2.5 GB ] Суперпитомцы / DC League of Super-Pets | Jaskier | HDRip-AVC bober100 Скачать
3 | 0
Мультфильмы (48-60 fps) [ 3.25 GB ] Суперпитомцы / DC League of Super-Pets | | DLRip 720p / 60 FPS MVO slaventi-69 Скачать
2 | 0
Иностранные мультфильмы [ 1.46 GB ] Суперпитомцы / DC League of Super-Pets | DUB | DLRip bober100 Скачать
8 | 1
Зарубежные Мультфильмы (BDRip 1080p, 720p, Blu-ray, BD-Remux) [ 3.73 GB ] Суперпитомцы / DC League of Super-Pets | Jaskier | 720p bober100 Скачать
3 | 0



Последний раз редактировалось: bober100 (2022-10-03 13:02), всего редактировалось 4 раз(а)

28-11-2019 20:33  

Отключить вcю реклaмy на сайте

31-08-2022 13:12 Суперпитомцы Скачать торрент  

кто посмотрел отпишитесь пожалуйста в чьей озвучке лучше посмотреть



    Дорогой пользователь! Огромная просьба, поблагодарите релизера, оцените раздачу и оставьте свои комментарий, если Вы скачали Суперпитомцы через торрент бесплатно!!
    Комментировать посты могут только пользователи прошедшие не сложную регистрацию
    Показать сообщения:    


    Суперпитомцы через торрент
    Скачать бесплатно Суперпитомцы
    Суперпитомцы скачать торрент
    Суперпитомцы смотреть онлайн
    Cкачать фильм Суперпитомцы бесплатно
    Суперпитомцы скачать торрент в хорошем качестве
    Суперпитомцы смотреть онлайн бесплатно в хорошем качестве
    Вы не можете начинать темы
    Вы не можете отвечать на сообщения
    Вы не можете редактировать свои сообщения
    Вы не можете удалять свои сообщения
    Вы не можете голосовать в опросах
    Вы не можете прикреплять файлы к сообщениям
    Вы можете скачивать файлы