Доктор Стрэндж

Лицензия

Добыча

MVO

Дом дракона

1 сезон

Тор

Лицензия

Мэверик

Лицензия

Там, где раки поют

MVO

Властелин колец

1 сезон

Ultimate

pack

Рекомендуем

30

Repack

ВАЖНО

ВАЖНО

Ghostwire

RePack

jed

RePack

nioh2

RePack

RDR2

RePack

NEED FOR SPEED™ PAYBACK

RePack

скачать торрент

Кинопоиск HD

Острые козырьки 6 сезон

6 сезон

FAR CRY 6

RePack

скачать торрент

Лицензия

скачать торрент

MVO

1

1 сезон

скачать торрент

1 сезон

скачать торрент

Лицензия

  

Код: Император / Código Emperador / Code Name: Emperor (Хорхе Койра) [2022, Триллер, драма, WEB-DLRip-AVC] DVO [Pazl Voice] от ExKinoRay

Код: Император через торрент piratbit.org

Раздают: 2 [ 0 KB/s ] Качают: 1 [ 0 KB/s ]
Размер: 1.99 GB | Добавлен: 1 мес. 7 д. назад | Торрент скачан:76 раз
Смотреть онлайн Код: Император | Скачать   

27-08-2022 04:45 Код: Император Скачать торрент  


Код: Император / Código Emperador / Code Name: Emperor
Информация о фильме:
Название: Код: Император
Оригинальное название: Código Emperador / Code Name: Emperor
Год выхода: 2022
Жанр: Триллер, драма
Режиссер: Хорхе Койра
В ролях: Луис Тосар, Александра Масангкей, Джорджина Аморос, Денис Гомес, Лаура Домингес, Мигель Рельян, Мария Ботто, Фран Лареу, Хуан Карлос Вельидо, Арон Пипер

Описание: Хуан работает на испанскую разведку: прослушивает дома подозреваемых в нелегальной торговле оружием, находит компромат на политиков и помогает избежать скандала звёздным личностям. Во время одной операции он знакомится с филиппинкой Венди, чьё добросердечие заставляет его усомниться в правильности своих поступков.



Страна: Испания, Франция
Студия: Axencia Galega das Industrias Culturais (AGADIC), Instituto de la Cinematografía, Ley del Plomo, La
Продолжительность: 01:45:52
Перевод: Любительский (двухголосый, закадровый) - Pazl Voice | Ненормативная лексика!



Информация о файле:
Кодек: AVC
Формат: MKV
Качество: WEB-DLRip-AVC
Видео: MPEG-4 AVC, 1024x428, 23.976 fps, 1800 kb/s
Аудио RU: AC3, 6 ch, 48 kHz, 448 kbps
Аудио EN: AC3, 6 ch, 48 kHz, 448 kbps
Субтитры: Русские, английские



x264 info: frame I:1319 Avg QP:14.25 size: 61407
x264 info: frame P:29970 Avg QP:16.62 size: 20363
x264 info: frame B:121147 Avg QP:18.20 size: 6081
General
Unique ID : 180040180174780716749638434519127505235 (0x87727A38242C951CE6CDA4CCA8053953)
Complete name : D:uTorrentРипы wolf1245Code Name.Emperor.2022.DVO.PAZL.X264.WEB-DLRip-AVC.[wolf1245.ExKinoRay].mkv
Format : Matroska
Format version : Version 4
File size : 1.99 GiB
Duration : 1 h 45 min
Overall bit rate : 2 696 kb/s
Movie name : Code Name.Emperor.2022.DVO.PAZL.X264.WEB-DLRip-AVC.[wolf1245.ExKinoRay]
Encoded date : UTC 2022-08-27 04:31:00
Writing application : mkvmerge v70.0.0 ('Caught A Lite Sneeze') 64-bit
Writing library : libebml v1.4.2 + libmatroska v1.6.4
Video
ID : 1
Format : AVC
Format/Info : Advanced Video Codec
Format profile : High@L4.1
Format settings : CABAC / 12 Ref Frames
Format settings, CABAC : Yes
Format settings, Reference frames : 12 frames
Codec ID : V_MPEG4/ISO/AVC
Duration : 1 h 45 min
Bit rate : 1 800 kb/s
Width : 1 024 pixels
Height : 428 pixels
Display aspect ratio : 2.40:1
Frame rate mode : Constant
Frame rate : 24.000 FPS
Color space : YUV
Chroma subsampling : 4:2:0
Bit depth : 8 bits
Scan type : Progressive
Bits/(Pixel*Frame) : 0.171
Stream size : 1.33 GiB (67%)
Title : -=[wolf1245.ExKinoRay]=-
Writing library : x264 core 163 r3060 5db6aa6
Encoding settings : cabac=1 / ref=12 / deblock=1:-1:-1 / analyse=0x3:0x133 / me=umh / subme=9 / psy=1 / psy_rd=1.05:0.15 / mixed_ref=1 / me_range=32 / chroma_me=1 / trellis=2 / 8x8dct=1 / cqm=0 / deadzone=22,11 / fast_pskip=1 / chroma_qp_offset=-3 / threads=10 / lookahead_threads=2 / sliced_threads=0 / nr=0 / decimate=0 / interlaced=0 / bluray_compat=0 / constrained_intra=0 / bframes=12 / b_pyramid=2 / b_adapt=2 / b_bias=0 / direct=3 / weightb=1 / open_gop=0 / weightp=2 / keyint=240 / keyint_min=24 / scenecut=40 / intra_refresh=0 / rc_lookahead=100 / rc=2pass / mbtree=0 / bitrate=1800 / ratetol=1.0 / qcomp=0.60 / qpmin=0 / qpmax=69 / qpstep=4 / cplxblur=20.0 / qblur=0.5 / vbv_maxrate=50000 / vbv_bufsize=62500 / nal_hrd=none / filler=0 / ip_ratio=1.37 / pb_ratio=1.27 / aq=3:0.80
Language : Spanish
Default : Yes
Forced : No
Audio #1
ID : 2
Format : AC-3
Format/Info : Audio Coding 3
Commercial name : Dolby Digital
Codec ID : A_AC3
Duration : 1 h 45 min
Bit rate mode : Constant
Bit rate : 448 kb/s
Channel(s) : 6 channels
Channel layout : L R C LFE Ls Rs
Sampling rate : 48.0 kHz
Frame rate : 31.250 FPS (1536 SPF)
Compression mode : Lossy
Stream size : 339 MiB (17%)
Title : DVO | Pazl Voice | RUS
Language : Russian
Service kind : Complete Main
Default : Yes
Forced : No
Audio #2
ID : 3
Format : AC-3
Format/Info : Audio Coding 3
Commercial name : Dolby Digital
Codec ID : A_AC3
Duration : 1 h 45 min
Bit rate mode : Constant
Bit rate : 448 kb/s
Channel(s) : 6 channels
Channel layout : L R C LFE Ls Rs
Sampling rate : 48.0 kHz
Frame rate : 31.250 FPS (1536 SPF)
Compression mode : Lossy
Stream size : 339 MiB (17%)
Title : Original | ENG
Language : English
Service kind : Complete Main
Default : No
Forced : No
Text #1
ID : 4
Format : UTF-8
Codec ID : S_TEXT/UTF8
Codec ID/Info : UTF-8 Plain Text
Duration : 1 h 44 min
Bit rate : 71 b/s
Count of elements : 1116
Stream size : 54.5 KiB (0%)
Language : Russian
Default : No
Forced : No
Text #2
ID : 5
Format : UTF-8
Codec ID : S_TEXT/UTF8
Codec ID/Info : UTF-8 Plain Text
Duration : 1 h 40 min
Bit rate : 50 b/s
Count of elements : 1130
Stream size : 36.9 KiB (0%)
Language : English
Default : No
Forced : No
Релиз от:
Автор релиза:



Скачать Код: Император через торрент http://i120.fastpic.org/big/2022/0827/6a/3bb7e3a40e8e9b23155505a99a58956a.png Скачать, смотреть онлайн Код: Император бесплантно в хорошем качестве Описание: Хуан работает на испанскую разведку: прослушивает дома подозреваемых в нелегальной торговле оружием, находит компромат на ... 10 10 4
Торрент: Зарегистрирован [2022-08-27 04:45] · скачан: 76 раз
Статус: T временная
Размер: 1.99 GB
Как cкачать? Как скачать Код: Император через торрент | UTorrent

28-11-2019 20:33  

Отключить вcю реклaмy на сайте

    Дорогой пользователь! Огромная просьба, поблагодарите релизера, оцените раздачу и оставьте свои комментарий, если Вы скачали Код: Император через торрент бесплатно!!
    Комментировать посты могут только пользователи прошедшие не сложную регистрацию
    Показать сообщения:    


    Код: Император через торрент
    Скачать бесплатно Код: Император
    Код: Император скачать торрент
    Код: Император смотреть онлайн
    Cкачать фильм Код: Император бесплатно
    Код: Император скачать торрент в хорошем качестве
    Код: Император смотреть онлайн бесплатно в хорошем качестве
    Вы можете начинать темы
    Вы можете отвечать на сообщения
    Вы не можете редактировать свои сообщения
    Вы не можете удалять свои сообщения
    Вы не можете голосовать в опросах
    Вы не можете прикреплять файлы к сообщениям
    Вы можете скачивать файлы