Доктор Стрэндж

Лицензия

Добыча

MVO

Дом дракона

1 сезон

Тор

Лицензия

Мэверик

Лицензия

Там, где раки поют

MVO

Властелин колец

1 сезон

Ultimate

pack

Рекомендуем

30

Repack

ВАЖНО

ВАЖНО

Ghostwire

RePack

jed

RePack

nioh2

RePack

RDR2

RePack

NEED FOR SPEED™ PAYBACK

RePack

скачать торрент

Кинопоиск HD

Острые козырьки 6 сезон

6 сезон

FAR CRY 6

RePack

скачать торрент

Лицензия

скачать торрент

MVO

1

1 сезон

скачать торрент

1 сезон

скачать торрент

Лицензия

  

Базз Лайтер / Lightyear (Энгус МакЛэйн) [2022 г., Мультфильм, фантастика, боевик, драма, приключения, WEB-DLRip 720p / 60 FPS, Дубляж] (IMAX Edition) от R.G. HD-Films

Базз Лайтер через торрент piratbit.org

Раздают: 1 [ 0 KB/s ]
Размер: 4.66 GB | Добавлен: 1 мес. 7 д. назад | Торрент скачан:72 раза
Смотреть онлайн Базз Лайтер | Скачать   

27-08-2022 10:03 Базз Лайтер Скачать торрент  

Базз Лайтер / Lightyear
Год выпуска: 2022
Страна: США
Жанр: Мультфильм, фантастика, боевик, драма, приключения
Продолжительность: 01:44:58
Перевод: Любительский (дублированный) Red Head Sound
Субтитры: Русские (Forced вшитые, full), английские

Режиссер: Энгус МакЛэйн

Премьера в мире: 15 июня 2022

rating

В ролях: Крис Эванс, Кеке Палмер, Питер Сон, Тайка Вайтити, Дэйл Соулс, Джеймс Бролин, Узо Адуба, Мэри МаДональд-Льюис, Исайя Уитлок мл., Энгус МакЛэйн

Описание: Базз Лайтер, космический рейнджер из Звездного Командования, проведя годы, пытаясь вернуться домой, он сталкивается с армией безжалостных роботов под командованием Зурга, которые пытаются украсть его источник топлива.

Качество: WEB-DLRip 720p / 60 FPS
Формат: MKV
Видео кодек: H.264
Аудио кодек: AC3
Видео: x264, 1280 x 720 ( 16:9 ), 5963 kbps, 60,000 fps, ( 0.108 bpp)
Аудио#1: Русский, AC-3, 48.0 KHz, 6 ch, 384 Kbps Red Head Sound
Релиз от: Автор рипа: slaventi-69

x264 [info]: using cpu capabilities: MMX2 SSE2Fast SSSE3 SSE4.2 AVX AVX2 FMA3 LZCNT BMI1 BMI2
x264 [info]: profile High, level 4.1
x264 [info]: frame I:2014 Avg QP:12.02 size: 98773
x264 [info]: frame P:86788 Avg QP:13.60 size: 27224
x264 [info]: frame B:289104 Avg QP:15.44 size: 7379
x264 [info]: consecutive B-frames: 2.4% 2.6% 5.8% 20.7% 37.4% 31.1%


Общее
Уникальный идентификатор : 227276800329870202453241489829086175033 (0xAAFBEB671A72324640CD479883C11F39)
Полное имя : G:\60 FPS\Lightyear.(2022).WEB-DLRip.720p.(60 Fps).(IMAX Edition).mkv
Формат : Matroska
Версия формата : Version 4
Размер файла : 4,66 Гбайт
Продолжительность : 1 ч. 44 м.
Общий поток : 6352 Кбит/сек
Название фильма : Базз Лайтер / Lightyear (2022) WEB-DLRip 720p (60 Fps) | IMAX Edition
Дата кодирования : UTC 2022-08-27 09:36:46
Программа кодирования : mkvmerge v69.0.0 ('Day And Age') 64-bit
Библиотека кодирования : libebml v1.4.2 + libmatroska v1.6.4

Видео
Идентификатор : 1
Формат : AVC
Формат/Информация : Advanced Video Codec
Профиль формата : High@L4.1
Настройки формата : CABAC / 9 Ref Frames
Параметр CABAC формата : Да
Параметр RefFrames формата : 9 кадров
Идентификатор кодека : V_MPEG4/ISO/AVC
Продолжительность : 1 ч. 44 м.
Битрейт : 5963 Кбит/сек
Ширина : 1280 пикселей
Высота : 720 пикселей
Соотношение сторон : 16:9
Режим частоты кадров : Постоянный
Частота кадров : 60,000 кадров/сек
Цветовое пространство : YUV
Субдискретизация насыщенности : 4:2:0
Битовая глубина : 8 бит
Тип развёртки : Прогрессивная
Бит/(Пиксели*Кадры) : 0.108
Размер потока : 4,37 Гбайт (94%)
Заголовок : slaventi-69 ( R.G. HD-Films | 60 fps )
Библиотека кодирования : x264 core 130 r2273 b3065e6
Настройки программы : cabac=1 / ref=9 / deblock=1:-3:-3 / analyse=0x3:0x133 / me=umh / subme=9 / psy=1 / psy_rd=1.00:0.00 / mixed_ref=1 / me_range=32 / chroma_me=1 / trellis=2 / 8x8dct=1 / cqm=0 / deadzone=21,11 / fast_pskip=0 / chroma_qp_offset=-2 / threads=10 / lookahead_threads=4 / sliced_threads=0 / nr=0 / decimate=1 / interlaced=0 / bluray_compat=0 / constrained_intra=0 / bframes=5 / b_pyramid=2 / b_adapt=2 / b_bias=0 / direct=1 / weightb=1 / open_gop=0 / weightp=2 / keyint=600 / keyint_min=23 / scenecut=40 / intra_refresh=0 / rc=crf / mbtree=0 / crf=14.8 / qcomp=0.60 / qpmin=0 / qpmax=69 / qpstep=4 / ip_ratio=1.40 / pb_ratio=1.30 / aq=1:1.00
Язык : English
Default : Да
Forced : Нет

Аудио
Идентификатор : 2
Формат : AC-3
Формат/Информация : Audio Coding 3
Коммерческое название : Dolby Digital
Идентификатор кодека : A_AC3
Продолжительность : 1 ч. 44 м.
Вид битрейта : Постоянный
Битрейт : 384 Кбит/сек
Каналы : 6 каналов
Channel layout : L R C LFE Ls Rs
Частота : 48,0 КГц
Частота кадров : 31,250 кадров/сек (1536 SPF)
Битовая глубина : 16 бит
Метод сжатия : С потерями
Размер потока : 288 Мбайт (6%)
Заголовок : Dub [Red Head Sound]
Язык : Russian
ServiceKind/String : Complete Main
Default : Да
Forced : Нет

Текст #1
Идентификатор : 3
Формат : UTF-8
Идентификатор кодека : S_TEXT/UTF8
Идентификатор кодека/Информация : UTF-8 Plain Text
Продолжительность : 1 ч. 43 м.
Битрейт : 105 бит/сек
ElementCount : 1057
Размер потока : 79,8 Кбайт (0%)
Заголовок : Full
Язык : Russian
Default : Нет
Forced : Нет

Текст #2
Идентификатор : 4
Формат : UTF-8
Идентификатор кодека : S_TEXT/UTF8
Идентификатор кодека/Информация : UTF-8 Plain Text
Продолжительность : 1 ч. 42 м.
Битрейт : 63 бит/сек
ElementCount : 1667
Размер потока : 47,5 Кбайт (0%)
Заголовок : Full
Язык : English
Default : Нет
Forced : Нет

Текст #3
Идентификатор : 5
Формат : UTF-8
Идентификатор кодека : S_TEXT/UTF8
Идентификатор кодека/Информация : UTF-8 Plain Text
Продолжительность : 1 ч. 44 м.
Битрейт : 76 бит/сек
ElementCount : 2076
Размер потока : 58,3 Кбайт (0%)
Заголовок : SDH
Язык : English
Default : Нет
Forced : Нет

Меню
01:33:47.211 : en:Credits
01:35:51.668 : en:Post-Credits Scene 1
01:43:36.425 : en:Post-Credits Scene 2
01:44:44.493 : en:Post-Credits Scene 3

Просьба к переливающим на другие сайты, в оформлении указывайте пожалуйста авторство группы R.G. HD-Films



Скачать Базз Лайтер через торрент https://i120.fastpic.org/big/2022/0718/51/74059aebcd4c3259e40b4ad846171851.jpg Скачать, смотреть онлайн Базз Лайтер бесплантно в хорошем качестве Описание: Базз Лайтер, космический рейнджер из Звездного Командования, проведя годы, пытаясь вернуться домой, он сталкивается с армией ... 8.2 10 5
Торрент: Зарегистрирован [2022-08-27 10:03] · скачан: 72 раз
Статус: √ проверено
Размер: 4.66 GB
Как cкачать? Как скачать Базз Лайтер через торрент | UTorrent

% Раздел Тема Автор DL S | L
Зарубежные Мультфильмы (WEB-DL 720p, 1080p) [ 7.34 GB ] Базз Лайтер / Lightyear | Jaskier | 1080p bober100 Скачать
10 | 0
Зарубежные Мультфильмы (BDRip 1080p, 720p, Blu-ray, BD-Remux) [ 4.53 GB ] Базз Лайтер / Lightyear | Jaskier | 720p bober100 Скачать
3 | 0
Ultra HD (UHD: 2K, 4K, 8K) [ 36.84 GB ] Базз Лайтер / Lightyear | Jaskier | 2160p bober100 Скачать
1 | 0
Мультфильмы (48-60 fps) [ 3.59 GB ] Базз Лайтер / Lightyear | Дубляж | DLRip 720p / 60 FPS slaventi-69 Скачать
4 | 0
Иностранные мультфильмы [ 1.75 GB ] Базз Лайтер / Lightyear | Jaskier | DLRip bober100 Скачать
6 | 0

28-11-2019 20:33  

Отключить вcю реклaмy на сайте

28-08-2022 07:52 Базз Лайтер Скачать торрент  

подскажите, кто смотрел уже - это мульт под грифом повесточка\рейтинги, или интересный?



    Дорогой пользователь! Огромная просьба, поблагодарите релизера, оцените раздачу и оставьте свои комментарий, если Вы скачали Базз Лайтер через торрент бесплатно!!
    Комментировать посты могут только пользователи прошедшие не сложную регистрацию
    Показать сообщения:    


    Базз Лайтер через торрент
    Скачать бесплатно Базз Лайтер
    Базз Лайтер скачать торрент
    Базз Лайтер смотреть онлайн
    Cкачать фильм Базз Лайтер бесплатно
    Базз Лайтер скачать торрент в хорошем качестве
    Базз Лайтер смотреть онлайн бесплатно в хорошем качестве
    Вы не можете начинать темы
    Вы не можете отвечать на сообщения
    Вы не можете редактировать свои сообщения
    Вы не можете удалять свои сообщения
    Вы не можете голосовать в опросах
    Вы не можете прикреплять файлы к сообщениям
    Вы можете скачивать файлы