Доктор Стрэндж

Лицензия

Добыча

MVO

Дом дракона

1 сезон

Тор

Лицензия

Мэверик

Лицензия

Там, где раки поют

MVO

Властелин колец

1 сезон

Ultimate

pack

Рекомендуем

30

Repack

ВАЖНО

ВАЖНО

Ghostwire

RePack

jed

RePack

nioh2

RePack

RDR2

RePack

NEED FOR SPEED™ PAYBACK

RePack

скачать торрент

Кинопоиск HD

Острые козырьки 6 сезон

6 сезон

FAR CRY 6

RePack

скачать торрент

Лицензия

скачать торрент

MVO

1

1 сезон

скачать торрент

1 сезон

скачать торрент

Лицензия

  

Дитя тьмы: Первая жертва / Orphan: First Kill (Уильям Брент Белл) [2022, ужасы, триллер, драма, криминал, детектив, WEBRip-AVC] DVO [Pazl Voice] от ExKinoRay

Дитя тьмы: Первая жертва через торрент piratbit.org

Раздают: 10 [ 78 KB/s ]
Размер: 1.95 GB | Добавлен: 1 мес. 6 д. назад | Торрент скачан:139 раз
Смотреть онлайн Дитя тьмы: Первая жертва | Скачать   

27-08-2022 12:41 Дитя тьмы: Первая жертва Скачать торрент  


Дитя тьмы: Первая жертва / Orphan: First Kill
Информация о фильме:
Название: Дитя тьмы: Первая жертва
Оригинальное название: Orphan: First Kill
Год выхода: 2022
Жанр: ужасы, триллер, драма, криминал, детектив, киностудия
Режиссер: Уильям Брент Белл
В ролях: Изабель Фурман, Джулия Стайлз, Россиф Сазерленд, Хиро Канагава, Мэттью Финлан, Саманта Уолкс, Дэвид Браун, Лорен Кокрейн, Гвендолин Коллинс, Кристен Савацки

Описание: 2007 год. Сбежав из эстонской психиатрической больницы, 31-летняя женщина Лина, которая из-за заболевания выглядит на 9 лет, находит среди объявлений о пропавших детях похожую на себя девочку. Та оказывается из богатой американской семьи, и вот уже чудом обнаруженная «Эстер» возвращается к счастливым «родителям» и «старшему брату».



Страна: США
Студия: Dark Castle Entertainment, Eagle Vision, Entertainment One
Продолжительность: 01:38:25
Перевод: Любительский (двухголосый закадровый) - PazL Voice



Информация о файле:
Кодек: AVC
Формат: MKV
Качество: WEBRip-AVC
Видео: MPEG-4 AVC, 1024x554, 23.976 fps, 2000 kbps
Аудио RU: AC3, 6 ch, 48 kHz, 384 kbps
Аудио EN: AC3, 6 ch, 48 kHz, 448 kbps
Субтитры: Английские, французские



x264 info: frame I:986 Avg QP:12.70 size: 68499
x264 info: frame P:29912 Avg QP:15.39 size: 23496
x264 info: frame B:110686 Avg QP:17.13 size: 6367
General
Unique ID : 14522553050985216379820825915809083433 (0xAECF12588E3CACFE9A5123CFF483029)
Complete name : D:uTorrentРипы wolf1245Orphan.First Kill.2022.DVO.PAZL.X264.WEBRip-AVC.[wolf1245.ExKinoRay].mkv
Format : Matroska
Format version : Version 4
File size : 1.95 GiB
Duration : 1 h 38 min
Overall bit rate : 2 826 kb/s
Movie name : Orphan.First Kill.2022.DVO.PAZL.X264.WEBRip-AVC.[wolf1245.ExKinoRay]
Encoded date : UTC 2022-08-27 12:27:17
Writing application : mkvmerge v70.0.0 ('Caught A Lite Sneeze') 64-bit
Writing library : libebml v1.4.2 + libmatroska v1.6.4
Video
ID : 1
Format : AVC
Format/Info : Advanced Video Codec
Format profile : High@L4.1
Format settings : CABAC / 12 Ref Frames
Format settings, CABAC : Yes
Format settings, Reference frames : 12 frames
Codec ID : V_MPEG4/ISO/AVC
Duration : 1 h 38 min
Bit rate : 2 000 kb/s
Width : 1 024 pixels
Height : 554 pixels
Display aspect ratio : 1.85:1
Frame rate mode : Constant
Frame rate : 23.976 (24000/1001) FPS
Color space : YUV
Chroma subsampling : 4:2:0
Bit depth : 8 bits
Scan type : Progressive
Bits/(Pixel*Frame) : 0.147
Stream size : 1.37 GiB (71%)
Title : -=[wolf1245.ExKinoRay]=-
Writing library : x264 core 163 r3060 5db6aa6
Encoding settings : cabac=1 / ref=12 / deblock=1:-1:-1 / analyse=0x3:0x133 / me=umh / subme=10 / psy=1 / psy_rd=0.98:0.15 / mixed_ref=1 / me_range=32 / chroma_me=1 / trellis=2 / 8x8dct=1 / cqm=0 / deadzone=22,11 / fast_pskip=1 / chroma_qp_offset=-3 / threads=10 / lookahead_threads=2 / sliced_threads=0 / nr=0 / decimate=0 / interlaced=0 / bluray_compat=0 / constrained_intra=0 / bframes=12 / b_pyramid=2 / b_adapt=2 / b_bias=0 / direct=3 / weightb=1 / open_gop=0 / weightp=2 / keyint=240 / keyint_min=24 / scenecut=40 / intra_refresh=0 / rc_lookahead=100 / rc=2pass / mbtree=0 / bitrate=2000 / ratetol=1.0 / qcomp=0.60 / qpmin=0 / qpmax=69 / qpstep=4 / cplxblur=20.0 / qblur=0.5 / vbv_maxrate=50000 / vbv_bufsize=62500 / nal_hrd=none / filler=0 / ip_ratio=1.37 / pb_ratio=1.27 / aq=2:0.80
Language : English
Default : Yes
Forced : No
Color range : Limited
Color primaries : BT.709
Transfer characteristics : BT.709
Matrix coefficients : BT.709
Audio #1
ID : 2
Format : AC-3
Format/Info : Audio Coding 3
Commercial name : Dolby Digital
Codec ID : A_AC3
Duration : 1 h 38 min
Bit rate mode : Constant
Bit rate : 384 kb/s
Channel(s) : 6 channels
Channel layout : L R C LFE Ls Rs
Sampling rate : 48.0 kHz
Frame rate : 31.250 FPS (1536 SPF)
Compression mode : Lossy
Stream size : 271 MiB (14%)
Title : DVO | Pazl voice | RUS
Language : Russian
Service kind : Complete Main
Default : Yes
Forced : No
Audio #2
ID : 3
Format : AC-3
Format/Info : Audio Coding 3
Commercial name : Dolby Digital
Codec ID : A_AC3
Duration : 1 h 38 min
Bit rate mode : Constant
Bit rate : 448 kb/s
Channel(s) : 6 channels
Channel layout : L R C LFE Ls Rs
Sampling rate : 48.0 kHz
Frame rate : 31.250 FPS (1536 SPF)
Compression mode : Lossy
Stream size : 315 MiB (16%)
Title : Original | ENG
Language : English
Service kind : Complete Main
Default : No
Forced : No
Text #1
ID : 4
Format : UTF-8
Codec ID : S_TEXT/UTF8
Codec ID/Info : UTF-8 Plain Text
Duration : 1 h 33 min
Bit rate : 45 b/s
Count of elements : 1239
Stream size : 31.2 KiB (0%)
Language : English
Default : No
Forced : No
Text #2
ID : 5
Format : UTF-8
Codec ID : S_TEXT/UTF8
Codec ID/Info : UTF-8 Plain Text
Duration : 1 h 33 min
Bit rate : 45 b/s
Count of elements : 1239
Stream size : 31.2 KiB (0%)
Title : Canadian
Language : French
Default : No
Forced : No
Релиз от:
Автор релиза:



Скачать Дитя тьмы: Первая жертва через торрент http://i120.fastpic.org/big/2022/0827/f5/8daa5385904e93363c57579c14886cf5.jpg Скачать, смотреть онлайн Дитя тьмы: Первая жертва бесплантно в хорошем качестве Описание: 2007 год. Сбежав из эстонской психиатрической больницы, 31-летняя женщина Лина, которая из-за заболевания выглядит на 9 лет, ... 9.9 10 9
Торрент: Зарегистрирован [2022-08-27 12:41] · скачан: 139 раз
Статус: T временная
Размер: 1.95 GB
Как cкачать? Как скачать Дитя тьмы: Первая жертва через торрент | UTorrent

% Раздел Тема Автор DL S | L
Фильмы 2022 [DVDrip, WEB-DLRip, HDrip] (DUB, MVO) [ 1.45 GB ] Дитя тьмы: Первая жертва / Orphan: First Kill | DUB | DLRip-AVC bober100 Скачать
3 | 0
Фильмы (WEB-DL 720p, 1080p) [ 5.51 GB ] Дитя тьмы: Первая жертва / Orphan: First Kill | DUB | 1080p bober100 Скачать
13 | 0
Фильмы 2022 [DVDrip, WEB-DLRip, HDrip] (DUB, MVO) [ 1.46 GB ] Дитя тьмы: Первая жертва / Orphan: First Kill | DUB | DLRip bober100 Скачать
12 | 0
Фильмы (WEB-DL 720p, 1080p) [ 2.37 GB ] Дитя тьмы: Первая жертва / Orphan: First Kill | DUB | 720p bober100 Скачать
5 | 0

28-11-2019 20:33  

Отключить вcю реклaмy на сайте

30-08-2022 08:44 Дитя тьмы: Первая жертва Скачать торрент  

ого какой прикольный сюжет, такого я еще не видел) локализаторы - гниды
upd. смотреть можно, мелких косяков хватает, а девица, когда не улыбается, сразу стареет лет на десять. в целом терпимо, выключить желания нет, 6 карлиц из 10)



    Дорогой пользователь! Огромная просьба, поблагодарите релизера, оцените раздачу и оставьте свои комментарий, если Вы скачали Дитя тьмы: Первая жертва через торрент бесплатно!!
    Комментировать посты могут только пользователи прошедшие не сложную регистрацию
    Показать сообщения:    


    Дитя тьмы: Первая жертва через торрент
    Скачать бесплатно Дитя тьмы: Первая жертва
    Дитя тьмы: Первая жертва скачать торрент
    Дитя тьмы: Первая жертва смотреть онлайн
    Cкачать фильм Дитя тьмы: Первая жертва бесплатно
    Дитя тьмы: Первая жертва скачать торрент в хорошем качестве
    Дитя тьмы: Первая жертва смотреть онлайн бесплатно в хорошем качестве
    Вы можете начинать темы
    Вы можете отвечать на сообщения
    Вы не можете редактировать свои сообщения
    Вы не можете удалять свои сообщения
    Вы не можете голосовать в опросах
    Вы не можете прикреплять файлы к сообщениям
    Вы можете скачивать файлы