Доктор Стрэндж

Лицензия

Добыча

Дубляж

Дом дракона

1 сезон

Тор

Дубляж

В эфире

Дубляж

Там, где раки поют

MVO

Властелин колец

1 сезон

Ultimate

pack

Рекомендуем

30

Пиратка

ВАЖНО

ВАЖНО

Ghostwire

Пиратка

jed

RePack

nioh2

RePack

RDR2

RePack

NEED FOR SPEED™ PAYBACK

RePack

скачать торрент

Кинопоиск HD

Острые козырьки 6 сезон

6 сезон

FAR CRY 6

RePack

скачать торрент

Лицензия

скачать торрент

MVO

1

1 сезон

скачать торрент

1 сезон

скачать торрент

Лицензия

  

Женщина-Халк: Адвокат / She-Hulk: Attorney at Law / Сезон: 1 / Серии: 1-9 из 9 (Кэт Койро, Ану Валиа) [2022, Фантастика, боевик, драма, комедия, приключения, WEB-DLRip] MVO [LostFilm]

Женщина-Халк: Адвокат через торрент piratbit.org

Раздают: 4 [ 9 KB/s ]
Размер: 4.83 GB | Добавлен: 1 мес. 11 д. назад | Торрент скачан:92 раза
Смотреть онлайн | Скачать   

14-09-2022 10:35 Женщина-Халк: Адвокат Скачать торрент  

Женщина-Халк: Адвокат | She-Hulk: Attorney at Law
«You'll like her when she's angry»
Год выпуска: 2022
Страна: США
Выпущено: Marvel Studios, Disney+
Жанр: Фантастика, боевик, драма, комедия, приключения
Продолжительность: ~ 00:35:00 серия
Перевод: Профессиональный (многоголосый) | LostFilm
Субтитры: Русские (Forced, Full |Где тексты Лебовски?)

Режиссер: Кэт Койро, Ану Валиа

rating

В ролях: Татьяна Маслани (Tatiana Maslany), Марк Руффало (Mark Ruffalo), Джинджер Гонзага (Ginger Gonzaga), Джамила Джамил (Jameela Jamil), Тим Рот (Tim Roth), Бенедикт Вонг (Benedict Wong), Чарли Кокс (Charlie Cox), Джош Сегарра (Josh Segarra), Гриффин Мэтьюз (Griffin Matthews), Стив Култер (Steve Coulter), Дрю Мэтьюз (Drew Matthews), Брэндон Хирш (Brandon Hirsch)

Описание: Сериал «Женщина-Халк: Адвокат» рассказывает историю Дженнифер Уолтерс, жизнь которой безвозвратно меняется с появлением сверхспособностей. Дженни – тридцатилетняя кузина Брюса Бэннера, больше известного как Халк. После неудачного переливания крови в ее тело попадает ДНК Брюса. Теперь время от времени девушка превращается в двухметровое зеленое чудовище. Но есть одна проблема: Уолтерс не хочет быть супергероем! Она устраивается в адвокатскую контору, чтобы отстаивать интересы сверхлюдей в суде.

Качество: WEB-DLRip
Формат: AVI

Видео: 720x304 (2.35:1), 23.976 fps, XviD, 1600 Kbps
Аудио Rus: AC3, 48.0 KHz, 2 ch, 192 kbps | LostFilm
Аудио Eng: AC3, 48.0 KHz, 2 ch, 192 kbps
скриншот  скриншот  скриншот  скриншот  скриншот  

General
Complete name : C:\Users\andre\Downloads\She-Hulk Attorney at Law.S1.WEB-DLRip.LostFilm\She.Hulk.Attorney.at.Law.S01.E01.WEB-DLRip.Rus.Eng.by.Сибиряк.avi
Format : AVI
Format/Info : Audio Video Interleave
File size : 505 MiB
Duration : 35 min 22 s
Overall bit rate : 1 996 kb/s
Writing application : VirtualDubMod 1.5.10.2 (build 2540/release)
Video #0
ID : 0
Format : MPEG-4 Visual
Format profile : Advanced Simple@L5
Format settings : BVOP1
Format settings, BVOP : 1
Format settings, QPel : No
Format settings, GMC : No warppoints
Format settings, Matrix : Default (H.263)
Codec ID : XVID
Codec ID/Hint : XviD
Duration : 35 min 22 s
Bit rate : 1 598 kb/s
Width : 720 pixels
Height : 304 pixels
Display aspect ratio : 2.35:1
Frame rate : 23.976 (24000/1001) FPS
Color space : YUV
Chroma subsampling : 4:2:0
Bit depth : 8 bits
Scan type : Progressive
Compression mode : Lossy
Bits/(Pixel*Frame) : 0.305
Stream size : 404 MiB (80%)
Writing library : XviD 69
Audio #1
ID : 1
Format : AC-3
Format/Info : Audio Coding 3
Codec ID : 2000
Duration : 35 min 21 s
Bit rate mode : Constant
Bit rate : 192 kb/s
Channel(s) : 2 channels
Channel positions : Front: L R
Sampling rate : 48.0 kHz
Frame rate : 31.250 FPS (1536 SPF)
Bit depth : 16 bits
Compression mode : Lossy
Stream size : 48.6 MiB (10%)
Alignment : Split accross interleaves
Interleave, duration : 42 ms (1.00 video frame)
Interleave, preload duration : 500 ms
Service kind : Complete Main
Audio #2
ID : 2
Format : AC-3
Format/Info : Audio Coding 3
Codec ID : 2000
Duration : 35 min 22 s
Bit rate mode : Constant
Bit rate : 192 kb/s
Channel(s) : 2 channels
Channel positions : Front: L R
Sampling rate : 48.0 kHz
Frame rate : 31.250 FPS (1536 SPF)
Bit depth : 16 bits
Compression mode : Lossy
Stream size : 48.6 MiB (10%)
Alignment : Split accross interleaves
Interleave, duration : 42 ms (1.00 video frame)
Interleave, preload duration : 500 ms
Service kind : Complete Main

Когда раздача ведётся путём добавления новых серий, при каждом добавлении создётся новый торрент. Чтобы начать докачку новой серии, пользователям необходимо сделать следующее:
(1) остановить скачивание,
(2) удалить старый торрент у себя из клиента (старые серии удалять не надо),
(3) скачать новый торрент и запустить его у себя в клиенте вместо старого, при этом указать клиенту путь в старую папку, куда и должно происходить скачивание новых серий.
Ваш клиент при этом должен произвести хеширование (проверку) старой папки (если не производит сам - помогите ему сделать это), и будет докачивать только те серии, которых у вас ещё нет. Старые серии при этом не удаляются, а продолжают раздаваться!
Eсли вы уже удалили старые серии, то предотвратить повторную закачку старых серий можно, отжав галочку в соответсвующих местах при запуске нового торрента. По возможности, желательно не удалять старые серии как можно дольше, чтобы релизёр не столько продолжал раздавать старые серии, а смог сконцентрироваться на новых.




Скачать Женщина-Халк: Адвокат через торрент https://i6-imageban-ru.translate.goog/out/2022/08/19/e10bd3af4897627cf589af12814d6a98.png Скачать, смотреть онлайн Женщина-Халк: Адвокат бесплантно в хорошем качестве Описание: Сериал «Женщина-Халк: Адвокат» рассказывает историю Дженнифер Уолтерс, жизнь которой безвозвратно меняется с появлением ... 5.7 10 18
Торрент: Зарегистрирован [2022-10-16 11:40] · скачан: 92 раз
Статус: √ проверено
Размер: 4.83 GB
Как cкачать? Как скачать Женщина-Халк: Адвокат через торрент | UTorrent

% Раздел Тема Автор DL S | L
Зарубежные сериалы [ 15.71 GB ] Женщина-Халк: Адвокат / She-Hulk: Attorney at Law / Сезон: 1 / Серии: 1-9 из 9 | LostFilm | 1080p bober100 Скачать
5 | 0
Зарубежные сериалы [ 12.27 GB ] Женщина-Халк: Адвокат / She-Hulk: Attorney at Law / Сезон: 1 / Серии: 1-9 из 9 | DUB | 1080p bober100 Скачать
2 | 0

28-11-2019 20:33  


Отключить вcю реклaмy на сайте, в т.ч. и в плеере онлайн просмотра!

    Дорогой пользователь! Огромная просьба, поблагодарите релизера, оцените раздачу и оставьте свои комментарий, если Вы скачали Женщина-Халк: Адвокат через торрент бесплатно!!
    Комментировать посты могут только пользователи прошедшие не сложную регистрацию
    Показать сообщения:    


    Женщина-Халк: Адвокат через торрент
    Скачать бесплатно Женщина-Халк: Адвокат
    Женщина-Халк: Адвокат скачать торрент
    Женщина-Халк: Адвокат смотреть онлайн
    Cкачать фильм Женщина-Халк: Адвокат бесплатно
    Женщина-Халк: Адвокат скачать торрент в хорошем качестве
    Женщина-Халк: Адвокат смотреть онлайн бесплатно в хорошем качестве
    Вы не можете начинать темы
    Вы не можете отвечать на сообщения
    Вы не можете редактировать свои сообщения
    Вы не можете удалять свои сообщения
    Вы не можете голосовать в опросах
    Вы не можете прикреплять файлы к сообщениям
    Вы можете скачивать файлы
    Женщина-Халк: Адвокат / She-Hulk: Attorney at Law / Сезон: 1 / Серии: 1-9 из 9 [2022, Фантастика, боевик, драма, комедия, приключения, WEB-DLRip] MVO [LostFilm] смотреть онлайн, скачать торрент picoco.icu