Доктор Стрэндж

Лицензия

Добыча

MVO

Дом дракона

1 сезон

Тор

Лицензия

Мэверик

Лицензия

Там, где раки поют

MVO

Властелин колец

1 сезон

Ultimate

pack

Рекомендуем

30

Repack

ВАЖНО

ВАЖНО

Ghostwire

RePack

jed

RePack

nioh2

RePack

RDR2

RePack

NEED FOR SPEED™ PAYBACK

RePack

скачать торрент

Кинопоиск HD

Острые козырьки 6 сезон

6 сезон

FAR CRY 6

RePack

скачать торрент

Лицензия

скачать торрент

MVO

1

1 сезон

скачать торрент

1 сезон

скачать торрент

Лицензия

  

Сеул на драйве / Seoul Daejakjeon / Seoul Vibe (Мун Хён-сон) [2022, боевик, комедия, криминал, WEB-DLRip-AVC] MVO [Head Pack Films] от ExKinoRay

Сеул на драйве через торрент piratbit.org

Раздают: 1 [ 0 KB/s ]
Размер: 2.51 GB | Добавлен: 19 д. назад | Торрент скачан:54 раза
Смотреть онлайн Сеул на драйве | Скачать   

14-09-2022 18:20 Сеул на драйве Скачать торрент  


Сеул на драйве / Seoul Daejakjeon / Seoul Vibe
Информация о фильме:
Название: Сеул на драйве
Оригинальное название: Seoul Daejakjeon / Seoul Vibe
Год выхода: 2022
Жанр: боевик, комедия, криминал
Режиссер: Мун Хён-сон
В ролях: Ю А-ин, Ко Гён-пхё, Он Сон-у, Пак Чу-хён, Ли Гю-хён, Ким Сон-гюн, Чон Ун-ин, Мун Со-ри, О Джон-сэ

Описание: Незадолго до начала Олимпийских игр 1988 года в Сеуле разношерстная команда гонщиков и механиков работает под прикрытием, чтобы разоблачить крупную сеть по отмыванию денег.

rating

Страна: Южная Корея
Студия: Andmarq Studio, Netflix
Продолжительность: 02:20:11
Перевод: Любительский (многоголосый, закадровый) - Head Pack Films



Информация о файле:
Кодек: AVC
Формат: MKV
Качество: WEB-DLRip-AVC
Видео: MPEG-4 AVC, 1024x428, 23.976 fps, 1920 kbps
Аудио RU: AC3, 2 ch, 48 kHz, 192 kbps
Аудио EN: AC3, 6 ch, 48 kHz, 448 kbps
Субтитры: русские, английские (Full, SDH), корейские (Forced, Full, SDH)



x264 info: frame I:2350 Avg QP:14.93 size: 62049
x264 info: frame P:46692 Avg QP:18.48 size: 21192
x264 info: frame B:152623 Avg QP:20.21 size: 5771
General
Unique ID : 197679460175729542214320835188838856391 (0x94B7ADDE5D7FCD710ADD1315DB8776C7)
Complete name : D:uTorrentРипы wolf1245Seoul Vibe.2022.MVO.Head.Pack.Films.x264.WEB-DLRip-AVC.[wolf1245.ExKinoRay].mkv
Format : Matroska
Format version : Version 4
File size : 2.51 GiB
Duration : 2 h 20 min
Overall bit rate : 2 560 kb/s
Movie name : Seoul Vibe.2022.MVO.Head.Pack.Films.x264.WEB-DLRip-AVC.[wolf1245.ExKinoRay]
Encoded date : UTC 2022-09-14 18:01:05
Writing application : mkvmerge v70.0.0 ('Caught A Lite Sneeze') 64-bit
Writing library : libebml v1.4.2 + libmatroska v1.6.4
Video
ID : 1
Format : AVC
Format/Info : Advanced Video Codec
Format profile : High@L4.1
Format settings : CABAC / 14 Ref Frames
Format settings, CABAC : Yes
Format settings, Reference frames : 14 frames
Codec ID : V_MPEG4/ISO/AVC
Duration : 2 h 20 min
Bit rate : 1 920 kb/s
Width : 1 024 pixels
Height : 428 pixels
Display aspect ratio : 2.40:1
Frame rate mode : Constant
Frame rate : 23.976 (24000/1001) FPS
Color space : YUV
Chroma subsampling : 4:2:0
Bit depth : 8 bits
Scan type : Progressive
Bits/(Pixel*Frame) : 0.183
Stream size : 1.88 GiB (75%)
Title : -=[wolf1245.ExKinoRay]=-
Writing library : x264 core 163 r3060 5db6aa6
Encoding settings : cabac=1 / ref=14 / deblock=1:-2:-2 / analyse=0x3:0x133 / me=umh / subme=10 / psy=1 / psy_rd=0.98:0.07 / mixed_ref=1 / me_range=32 / chroma_me=1 / trellis=2 / 8x8dct=1 / cqm=0 / deadzone=22,11 / fast_pskip=1 / chroma_qp_offset=-3 / threads=10 / lookahead_threads=2 / sliced_threads=0 / nr=0 / decimate=0 / interlaced=0 / bluray_compat=0 / constrained_intra=0 / bframes=12 / b_pyramid=2 / b_adapt=2 / b_bias=0 / direct=3 / weightb=1 / open_gop=0 / weightp=2 / keyint=240 / keyint_min=24 / scenecut=40 / intra_refresh=0 / rc_lookahead=100 / rc=2pass / mbtree=0 / bitrate=1920 / ratetol=1.0 / qcomp=0.75 / qpmin=0 / qpmax=69 / qpstep=4 / cplxblur=20.0 / qblur=0.5 / vbv_maxrate=50000 / vbv_bufsize=62500 / nal_hrd=none / filler=0 / ip_ratio=1.37 / pb_ratio=1.27 / aq=2:0.90
Language : Korean
Default : Yes
Forced : No
Audio #1
ID : 2
Format : AC-3
Format/Info : Audio Coding 3
Commercial name : Dolby Digital
Codec ID : A_AC3
Duration : 2 h 20 min
Bit rate mode : Constant
Bit rate : 192 kb/s
Channel(s) : 2 channels
Channel layout : L R
Sampling rate : 44.1 kHz
Frame rate : 28.711 FPS (1536 SPF)
Compression mode : Lossy
Stream size : 193 MiB (7%)
Title : MVO | Head Pack Films | RUS
Language : Russian
Service kind : Complete Main
Default : Yes
Forced : No
Audio #2
ID : 3
Format : AC-3
Format/Info : Audio Coding 3
Commercial name : Dolby Digital
Codec ID : A_AC3
Duration : 2 h 20 min
Bit rate mode : Constant
Bit rate : 448 kb/s
Channel(s) : 6 channels
Channel layout : L R C LFE Ls Rs
Sampling rate : 48.0 kHz
Frame rate : 31.250 FPS (1536 SPF)
Compression mode : Lossy
Stream size : 449 MiB (17%)
Title : Original | ENG
Language : English
Service kind : Complete Main
Default : No
Forced : No
Text #1
ID : 4
Format : UTF-8
Codec ID : S_TEXT/UTF8
Codec ID/Info : UTF-8 Plain Text
Duration : 2 h 17 min
Bit rate : 71 b/s
Count of elements : 1709
Stream size : 72.7 KiB (0%)
Title : Russian
Language : Russian
Default : No
Forced : No
Text #2
ID : 5
Format : UTF-8
Codec ID : S_TEXT/UTF8
Codec ID/Info : UTF-8 Plain Text
Duration : 2 h 14 min
Bit rate : 58 b/s
Count of elements : 1923
Stream size : 57.6 KiB (0%)
Title : Full
Language : English
Default : No
Forced : No
Text #3
ID : 6
Format : UTF-8
Codec ID : S_TEXT/UTF8
Codec ID/Info : UTF-8 Plain Text
Duration : 2 h 14 min
Bit rate : 75 b/s
Count of elements : 2653
Stream size : 74.6 KiB (0%)
Title : SDH
Language : English
Default : No
Forced : No
Text #4
ID : 7
Format : UTF-8
Codec ID : S_TEXT/UTF8
Codec ID/Info : UTF-8 Plain Text
Duration : 46 min 23 s
Bit rate : 0 b/s
Count of elements : 11
Stream size : 291 Bytes (0%)
Title : Forced
Language : Korean
Default : No
Forced : No
Text #5
ID : 8
Format : UTF-8
Codec ID : S_TEXT/UTF8
Codec ID/Info : UTF-8 Plain Text
Duration : 2 h 14 min
Bit rate : 69 b/s
Count of elements : 2764
Stream size : 69.0 KiB (0%)
Title : Full
Language : Korean
Default : No
Forced : No
Text #6
ID : 9
Format : UTF-8
Codec ID : S_TEXT/UTF8
Codec ID/Info : UTF-8 Plain Text
Duration : 2 h 14 min
Bit rate : 104 b/s
Count of elements : 2764
Stream size : 103 KiB (0%)
Title : SDH
Language : Korean
Default : No
Forced : No
Релиз от:
Автор релиза:



Скачать Сеул на драйве через торрент http://i120.fastpic.org/big/2022/0914/cf/fcd95071663dab31933b1b709702f7cf.jpg Скачать, смотреть онлайн Сеул на драйве бесплантно в хорошем качестве Описание: Незадолго до начала Олимпийских игр 1988 года в Сеуле разношерстная команда гонщиков и механиков работает под прикрытием, чтобы ... 8.6 10 5
Торрент: Зарегистрирован [2022-09-14 18:20] · скачан: 54 раз
Статус: √ проверено
Размер: 2.51 GB
Как cкачать? Как скачать Сеул на драйве через торрент | UTorrent

28-11-2019 20:33  

Отключить вcю реклaмy на сайте

    Дорогой пользователь! Огромная просьба, поблагодарите релизера, оцените раздачу и оставьте свои комментарий, если Вы скачали Сеул на драйве через торрент бесплатно!!
    Комментировать посты могут только пользователи прошедшие не сложную регистрацию
    Показать сообщения:    


    Сеул на драйве через торрент
    Скачать бесплатно Сеул на драйве
    Сеул на драйве скачать торрент
    Сеул на драйве смотреть онлайн
    Cкачать фильм Сеул на драйве бесплатно
    Сеул на драйве скачать торрент в хорошем качестве
    Сеул на драйве смотреть онлайн бесплатно в хорошем качестве
    Вы не можете начинать темы
    Вы не можете отвечать на сообщения
    Вы не можете редактировать свои сообщения
    Вы не можете удалять свои сообщения
    Вы не можете голосовать в опросах
    Вы не можете прикреплять файлы к сообщениям
    Вы можете скачивать файлы