Доктор Стрэндж

Лицензия

Добыча

MVO

Дом дракона

1 сезон

Тор

Лицензия

Мэверик

Лицензия

Там, где раки поют

MVO

Властелин колец

1 сезон

Ultimate

pack

Рекомендуем

30

Repack

ВАЖНО

ВАЖНО

Ghostwire

RePack

jed

RePack

nioh2

RePack

RDR2

RePack

NEED FOR SPEED™ PAYBACK

RePack

скачать торрент

Кинопоиск HD

Острые козырьки 6 сезон

6 сезон

FAR CRY 6

RePack

скачать торрент

Лицензия

скачать торрент

MVO

1

1 сезон

скачать торрент

1 сезон

скачать торрент

Лицензия

  

Три тысячи лет желаний / Three Thousand Years of Longing (Джордж Миллер) [2022, Фэнтези, драма, мелодрама, WEB-DL 720p] 2xMVO [Jaskier, TVShows]

Три тысячи лет желаний через торрент piratbit.org

Раздают: 6 [ 3 KB/s ] Качают: 1 [ 37 KB/s ]
Размер: 3.32 GB | Добавлен: 15 д. назад | Торрент скачан:338 раз
Смотреть онлайн Три тысячи лет желаний | Скачать   

18-09-2022 08:26 Три тысячи лет желаний Скачать торрент  

Три тысячи лет желаний
Three Thousand Years of Longing

Год выпуска: 2022
Выпущено: CAA Media Finance, Elevate Production Finance, FilmNation Entertainment, Kennedy Miller Mitchell, Kennedy Miller Productions, Metro-Goldwyn-Mayer (MGM)
Страна: Австралия, США
Жанр: Фэнтези, драма, мелодрама
Продолжительность: 01:48:21
Перевод:
Профессиональный (многоголосый) | Jaskier
Профессиональный (многоголосый) | TVShows
Субтитры: Русские (Full / feofanio), английские (Forced hardsub, Full, SDH)

Режиссер: Джордж Миллер

rating

В ролях: Тильда Суинтон, Идрис Эльба, Пиа Тандерболт, Берк Озтюрк, Энтони Муассе, Алила Браун, Сэйдж Макконнелл, Абель Бонд, Агани Гечмез, Аянту Усман

Описание: Вот уже три тысячи лет перед глазами Джинна проносятся эпохи, целые цивилизации и погубленные страстями династии. Хозяева его сосуда сменялись, но так и не успевали освободить Джинна. Наконец, в наши дни его судьба оказывается в руках Алетейи - выдающейся ученой в области литературы. Однако она знает, чем обычно заканчиваются истории про джиннов, а потому не торопится загадывать свои три желания. Это невероятное знакомство позволит им обоим посмотреть на мир совершенно по-новому и подарит обоим куда большее, чем они могли пожелать.

Качество: WEB-DL 720p
Формат: MKV

Видео: MPEG-4 AVC, 1248x520 at 23.976 fps, x264@L4.1, ~2975 kbps
Аудио 1: AC3, 6 ch, ~384 kbps - | Русский | | Jaskier
Аудио 2: AC3, 6 ch, ~384 kbps - | Русский | | TVShows
Аудио 3: E-AC3, 6 ch, ~640 kbps - | Английский | | Original
скриншот  скриншот  скриншот  скриншот  

General
Unique ID : 292819911561499457369541339128683322493 (0xDC4B104804AC82FA486694C171F45C7D)
Complete name : D:DELtТри тысячи лет желаний (2022) WEBThree.Thousand.Years.Of.Longing.2022.2xMVO.WEB-DL.720p.x264.seleZen.mkv
Format : Matroska
Format version : Version 4
File size : 3.32 GiB
Duration : 1 h 48 min
Overall bit rate : 4 386 kb/s
Movie name : Three.Thousand.Years.Of.Longing.2022.2xMVO.WEB-DL.720p.x264.seleZen
Encoded date : UTC 2022-09-17 11:38:49
Writing application : mkvmerge v70.0.0 ('Caught A Lite Sneeze') 64-bit
Writing library : libebml v1.4.2 + libmatroska v1.6.4
Cover : Yes
Attachments : cover.jpg / small_cover.jpg

Video
ID : 1
Format : AVC
Format/Info : Advanced Video Codec
Format profile : High@L3.1
Format settings : CABAC / 4 Ref Frames
Format settings, CABAC : Yes
Format settings, Reference : 4 frames
Codec ID : V_MPEG4/ISO/AVC
Duration : 1 h 48 min
Bit rate mode : Constant
Bit rate : 2 975 kb/s
Nominal bit rate : 4 000 kb/s
Width : 1 248 pixels
Height : 520 pixels
Display aspect ratio : 2.40:1
Frame rate mode : Constant
Frame rate : 23.976 (24000/1001) FPS
Color space : YUV
Chroma subsampling : 4:2:0
Bit depth : 8 bits
Scan type : Progressive
Bits/(Pixel*Frame) : 0.191
Stream size : 2.25 GiB (68%)
Language : English
Default : Yes
Forced : No
Color range : Limited
Color primaries : BT.709
Transfer characteristics : BT.709
Matrix coefficients : BT.709

Audio #1
ID : 2
Format : AC-3
Format/Info : Audio Coding 3
Commercial name : Dolby Digital
Codec ID : A_AC3
Duration : 1 h 48 min
Bit rate mode : Constant
Bit rate : 384 kb/s
Channel(s) : 6 channels
Channel layout : L R C LFE Ls Rs
Sampling rate : 48.0 kHz
Frame rate : 31.250 FPS (1536 SPF)
Compression mode : Lossy
Stream size : 298 MiB (9%)
Title : MVO_[Jaskier]
Language : Russian
Service kind : Complete Main
Default : Yes
Forced : Yes

Audio #2
ID : 3
Format : AC-3
Format/Info : Audio Coding 3
Commercial name : Dolby Digital
Codec ID : A_AC3
Duration : 1 h 48 min
Bit rate mode : Constant
Bit rate : 384 kb/s
Channel(s) : 6 channels
Channel layout : L R C LFE Ls Rs
Sampling rate : 48.0 kHz
Frame rate : 31.250 FPS (1536 SPF)
Compression mode : Lossy
Stream size : 298 MiB (9%)
Title : MVO_[TVShows]
Language : Russian
Service kind : Complete Main
Default : No
Forced : No

Audio #3
ID : 4
Format : E-AC-3
Format/Info : Enhanced AC-3
Commercial name : Dolby Digital Plus
Codec ID : A_EAC3
Duration : 1 h 48 min
Bit rate mode : Constant
Bit rate : 640 kb/s
Channel(s) : 6 channels
Channel layout : L R C LFE Ls Rs
Sampling rate : 48.0 kHz
Frame rate : 31.250 FPS (1536 SPF)
Compression mode : Lossy
Stream size : 496 MiB (15%)
Title : Original
Language : English
Service kind : Complete Main
Default : No
Forced : No

Text #1
ID : 5
Format : UTF-8
Codec ID : S_TEXT/UTF8
Codec ID/Info : UTF-8 Plain Text
Duration : 1 h 39 min
Bit rate : 91 b/s
Count of elements : 1324
Stream size : 66.4 KiB (0%)
Title : Full_[feofanio]
Language : Russian
Default : No
Forced : No

Text #2
ID : 6
Format : UTF-8
Codec ID : S_TEXT/UTF8
Codec ID/Info : UTF-8 Plain Text
Duration : 1 h 39 min
Bit rate : 49 b/s
Count of elements : 1248
Stream size : 35.9 KiB (0%)
Title : Full
Language : English
Default : No
Forced : No

Text #3
ID : 7
Format : UTF-8
Codec ID : S_TEXT/UTF8
Codec ID/Info : UTF-8 Plain Text
Duration : 1 h 39 min
Bit rate : 60 b/s
Count of elements : 1562
Stream size : 44.4 KiB (0%)
Title : SDH
Language : English
Default : No
Forced : No

Menu
00:00:00.000 : en:Глава 01
00:12:30.000 : en:Глава 02
00:25:00.000 : en:Глава 03
00:37:30.000 : en:Глава 04
00:50:00.000 : en:Глава 05
01:02:30.000 : en:Глава 06
01:15:00.000 : en:Глава 07
01:27:30.000 : en:Глава 08
01:40:00.000 : en:Глава 09




Скачать Три тысячи лет желаний через торрент https://i.postimg.cc/NF642Cq5/Three-Thousand-Years-of-Longing-film.jpg Скачать, смотреть онлайн Три тысячи лет желаний бесплантно в хорошем качестве Описание: Вот уже три тысячи лет перед глазами Джинна проносятся эпохи, целые цивилизации и погубленные страстями династии. Хозяева его ... 9.8 10 13
Торрент: Зарегистрирован [2022-09-18 08:26] · скачан: 338 раз
Статус: √ проверено
Размер: 3.32 GB
Как cкачать? Как скачать Три тысячи лет желаний через торрент | UTorrent

% Раздел Тема Автор DL S | L
Фильмы 2022 [DVDrip, WEB-DLRip, HDrip] (DUB, MVO) [ 2.15 GB ] Три тысячи лет желаний / Three Thousand Years of Longing | Jaskier | DLRip-AVC bober100 Скачать
19 | 0
Фильмы 2022 [DVDrip, WEB-DLRip, HDrip] (DUB, MVO) [ 2.51 GB ] Три тысячи лет желаний / Three Thousand Years of Longing | Jaskier | DLRip-AVC Lithuania Скачать
6 | 0
Фильмы (WEB-DL 720p, 1080p) [ 7.03 GB ] Три тысячи лет желаний / Three Thousand Years of Longing | Jaskier | 1080p bober100 Скачать
23 | 0

28-11-2019 20:33  

Отключить вcю реклaмy на сайте

20-09-2022 12:07 Три тысячи лет желаний Скачать торрент  

Хороший, спокойный фильм о людях и о любви.



    Дорогой пользователь! Огромная просьба, поблагодарите релизера, оцените раздачу и оставьте свои комментарий, если Вы скачали Три тысячи лет желаний через торрент бесплатно!!
    Комментировать посты могут только пользователи прошедшие не сложную регистрацию
    Показать сообщения:    


    Три тысячи лет желаний через торрент
    Скачать бесплатно Три тысячи лет желаний
    Три тысячи лет желаний скачать торрент
    Три тысячи лет желаний смотреть онлайн
    Cкачать фильм Три тысячи лет желаний бесплатно
    Три тысячи лет желаний скачать торрент в хорошем качестве
    Три тысячи лет желаний смотреть онлайн бесплатно в хорошем качестве
    Вы не можете начинать темы
    Вы не можете отвечать на сообщения
    Вы не можете редактировать свои сообщения
    Вы не можете удалять свои сообщения
    Вы не можете голосовать в опросах
    Вы не можете прикреплять файлы к сообщениям
    Вы можете скачивать файлы