Доктор Стрэндж

Лицензия

Добыча

MVO

Дом дракона

1 сезон

Тор

Лицензия

Мэверик

Лицензия

Там, где раки поют

MVO

Властелин колец

1 сезон

Ultimate

pack

Рекомендуем

30

Repack

ВАЖНО

ВАЖНО

Ghostwire

RePack

jed

RePack

nioh2

RePack

RDR2

RePack

NEED FOR SPEED™ PAYBACK

RePack

скачать торрент

Кинопоиск HD

Острые козырьки 6 сезон

6 сезон

FAR CRY 6

RePack

скачать торрент

Лицензия

скачать торрент

MVO

1

1 сезон

скачать торрент

1 сезон

скачать торрент

Лицензия

  

Не говори никому / Gæsterne / Speak No Evil (Кристиан Тафдруп) [2022, Ужасы, триллер, драма, WEB-DLRip 720p] MVO [TVShows]

Не говори никому через торрент piratbit.org

Раздают: 3 [ 0 KB/s ]
Размер: 1.68 GB | Добавлен: 12 д. назад | Торрент скачан:105 раз
Смотреть онлайн Не говори никому | Скачать   

21-09-2022 15:39 Не говори никому Скачать торрент  

Не говори никому / Gæsterne / Speak No Evil
Год выпуска: 2022
Страна: Дания, Нидерланды
Жанр: Ужасы, триллер, драма
Продолжительность: 01:37:55
Перевод: Профессиональный (многоголосый) TVShows
Субтитры: Английские (Full, SDH, форсированные на датскую речь (хардсаб))
Режиссер: Кристиан Тафдруп
В ролях: Мортен Буриан, Сидсель Сим Кох, Федя ван Хейт, Карина Смолдерс, Лива Форсберг, Мариус Дамслев, Ишем Якуби, Джеспер Дюпон, Леа Бааструп Рённе, Адриан Бланшар
Описание: Во время отпуска в Италии молодая семья знакомится с приятной парой с немым ребенком. Несколько месяцев спустя они получают неожиданное приглашение посетить загородный дом. Выходные превращаются в настоящий кошмар, когда выясняется, что их новые друзья совсем не те, за кого себя выдают.

Качество: WEB-DLRip 720p
Формат: MKV
Видео кодек: AVC
Аудио кодек: AC3
Видео: AVC, 1280 × 536, ~1 876 kbps, 23.976 fps
Аудио 1: AC3, 2 ch, 48 kHz, 192 kbps RUS
Аудио 2: AC3, 6 ch, 48 kHz, 384 kbps ENG
Реклама: Отсутствует

Код:

x264 [info]: frame I:823 Avg QP:13.86 size: 70865
x264 [info]: frame P:32303 Avg QP:15.27 size: 20767
x264 [info]: frame B:107745 Avg QP:17.70 size: 6019
x264 [info]: consecutive B-frames: 1,0% 1,2% 5,9% 56,8% 9,7% 15,5% 3,8% 4,0% 1,0% 0,7%

General
Unique ID : 249467392727497583496674138083313670581 (0xBBADAC1400922C2910F2DD82929959B5)
Complete name : I:Speak.No.Evil.2022.AMZN.WEB-DLRip.720p.x264.seleZen.mkv
Format : Matroska
Format version : Version 4
File size : 1.68 GiB
Duration : 1 h 37 min
Overall bit rate : 2 454 kb/s
Movie name : Speak.No.Evil.2022.AMZN.WEB-DLRip.720p.x264.seleZen
Encoded date : UTC 21.09.2022 14:04:32
Writing application : mkvmerge v70.0.0 ('Caught A Lite Sneeze') 64-bit
Writing library : libebml v1.4.2 + libmatroska v1.6.4
Cover : Yes
Attachments : cover.jpg / small_cover.jpg

Video
ID : 1
Format : AVC
Format/Info : Advanced Video Codec
Format profile : High@L4.1
Format settings : CABAC / 12 Ref Frames
Format settings, CABAC : Yes
Format settings, Reference : 12 frames
Codec ID : V_MPEG4/ISO/AVC
Duration : 1 h 37 min
Bit rate : 1 876 kb/s
Width : 1 280 pixels
Height : 536 pixels
Display aspect ratio : 2.40:1
Frame rate mode : Constant
Frame rate : 23.976 (24000/1001) FPS
Color space : YUV
Chroma subsampling : 4:2:0
Bit depth : 8 bits
Scan type : Progressive
Bits/(Pixel*Frame) : 0.114
Stream size : 1.28 GiB (76%)
Title : -=DoMiNo=-
Writing library : x264 core 164 by -=DoMiNo=-
Encoding settings : cabac=1 / ref=12 / deblock=1:-3:-2 / analyse=0×3:0×133 / me=umh / subme=9 / psy=1 / psy_rd=1.02:0.15 / mixed_ref=1 / me_range=32 / chroma_me=1 / trellis=2 / 8×8dct=1 / cqm=0 / deadzone=21,11 / fast_pskip=1 / chroma_qp_offset=-3 / threads=17 / lookahead_threads=2 / sliced_threads=0 / nr=0 / decimate=1 / interlaced=0 / bluray_compat=0 / constrained_intra=0 / bframes=9 / b_pyramid=2 / b_adapt=2 / b_bias=0 / direct=1 / weightb=1 / open_gop=0 / weightp=2 / keyint=250 / keyint_min=23 / scenecut=40 / intra_refresh=0 / rc_lookahead=60 / rc=crf / mbtree=0 / crf=19.5 / qcomp=0.65 / qpmin=0 / qpmax=69 / qpstep=4 / vbv_maxrate=50000 / vbv_bufsize=62500 / crf_max=0.0 / nal_hrd=none / filler=0 / ip_ratio=1.40 / pb_ratio=1.30 / aq=3:0.80
Language : English
Default : Yes
Forced : No

Audio #1
ID : 2
Format : AC-3
Format/Info : Audio Coding 3
Commercial name : Dolby Digital
Codec ID : A_AC3
Duration : 1 h 37 min
Bit rate mode : Constant
Bit rate : 192 kb/s
Channel (s) : 2 channels
Channel layout : L R
Sampling rate : 48.0 kHz
Frame rate : 31.250 FPS (1536 SPF)
Compression mode : Lossy
Stream size : 134 MiB (8%)
Title : MVO_[TVShows]
Language : Russian
Service kind : Complete Main
Default : Yes
Forced : Yes

Audio #2
ID : 3
Format : AC-3
Format/Info : Audio Coding 3
Commercial name : Dolby Digital
Codec ID : A_AC3
Duration : 1 h 37 min
Bit rate mode : Constant
Bit rate : 384 kb/s
Channel (s) : 6 channels
Channel layout : L R C LFE Ls Rs
Sampling rate : 48.0 kHz
Frame rate : 31.250 FPS (1536 SPF)
Compression mode : Lossy
Stream size : 269 MiB (16%)
Title : Original
Language : English
Service kind : Complete Main
Default : No
Forced : No

Text #1
ID : 4
Format : UTF-8
Codec ID : S_TEXT/UTF8
Codec ID/Info : UTF-8 Plain Text
Duration : 1 h 23 min
Bit rate : 28 b/s
Count of elements : 563
Stream size : 17.4 KiB (0%)
Title : Full
Language : English
Default : No
Forced : No

Text #2
ID : 5
Format : UTF-8
Codec ID : S_TEXT/UTF8
Codec ID/Info : UTF-8 Plain Text
Duration : 1 h 33 min
Bit rate : 38 b/s
Count of elements : 903
Stream size : 26.5 KiB (0%)
Title : SDH
Language : English
Default : No
Forced : No

скриншот   скриншот   скриншот  



Скачать Не говори никому через торрент https://i3-imageban-ru.translate.goog/out/2022/09/21/4671a86265f23776f0842fc482eefcc6.jpg Скачать, смотреть онлайн Не говори никому бесплантно в хорошем качестве Описание: Во время отпуска в Италии молодая семья знакомится с приятной парой с немым ребенком. Несколько месяцев спустя они получают ... 10 10 8
Торрент: Зарегистрирован [2022-09-21 15:39] · скачан: 105 раз
Статус: √ проверено
Размер: 1.68 GB
Как cкачать? Как скачать Не говори никому через торрент | UTorrent

% Раздел Тема Автор DL S | L
Фильмы 2022 [DVDrip, WEB-DLRip, HDrip] (DUB, MVO) [ 1.38 GB ] Не говори никому / Gæsterne / Speak No Evil | Jaskier | DLRip-AVC bober100 Скачать
7 | 0

28-11-2019 20:33  

Отключить вcю реклaмy на сайте

22-09-2022 18:41 Не говори никому Скачать торрент  

Автору спасибо. Фильм до того идиотский, что аж бешенство берет - жаль потраченного времени и нервов.



24-09-2022 22:03 Не говори никому Скачать торрент  

Сначала с вами мамка по военкоматам бегает, а потом вы становитесь "главой " семьи, который сытся под себя при виде любой опасности. Фильм вызывает злость и агрессию, спасибо европе за очередной говношедевр



    Дорогой пользователь! Огромная просьба, поблагодарите релизера, оцените раздачу и оставьте свои комментарий, если Вы скачали Не говори никому через торрент бесплатно!!
    Комментировать посты могут только пользователи прошедшие не сложную регистрацию
    Показать сообщения:    


    Не говори никому через торрент
    Скачать бесплатно Не говори никому
    Не говори никому скачать торрент
    Не говори никому смотреть онлайн
    Cкачать фильм Не говори никому бесплатно
    Не говори никому скачать торрент в хорошем качестве
    Не говори никому смотреть онлайн бесплатно в хорошем качестве
    Вы не можете начинать темы
    Вы не можете отвечать на сообщения
    Вы не можете редактировать свои сообщения
    Вы не можете удалять свои сообщения
    Вы не можете голосовать в опросах
    Вы не можете прикреплять файлы к сообщениям
    Вы можете скачивать файлы