Достать ножи: Стеклянная луковица

MVO

Добыча

Дубляж

Уэнсдэй

1 сезон

Тор

Дубляж

13 клиническая

1 сезон

Жестокая ночь

MVO

Одни из нас

1 сезон

Deluxe

pack

Рекомендуем

30

Пиратка

ВАЖНО

ВАЖНО

Ghostwire

Пиратка

jed

RePack

nioh2

RePack

RDR2

RePack

NEED FOR SPEED™ PAYBACK

RePack

скачать торрент

Кинопоиск HD

Острые козырьки 6 сезон

6 сезон

FAR CRY 6

RePack

скачать торрент

Лицензия

скачать торрент

MVO

1

1 сезон

скачать торрент

1 сезон

скачать торрент

Лицензия

  

За пивом! / The Greatest Beer Run Ever (Питер Фаррелли) [2022, Комедия, военный, драма, история, UHD WEB-DL-HEVC 2160p] Дубляж [AppleTV+]

За пивом! через торрент piratbit.org

Раздают: 3 [ 0 KB/s ]
Размер: 23.61 GB | Добавлен: 4 мес. 6 д. назад | Торрент скачан:194 раза
Смотреть онлайн | Скачать | Поддержите нас   

30-09-2022 03:24 За пивом! Скачать торрент  

За пивом!
The Greatest Beer Run Ever

Год выпуска: 2022
Страна: США
Студия: Living Films, Skydance Productions
Жанр: Комедия, военный, драма, история
Продолжительность: 02:06:57
Перевод: Дублированный | AppleTV+
Субтитры: Русские (Forced, full, SDH), украинские (Full), английские

Режиссер: Питер Фаррелли

rating

В ролях: Зак Эфрон, Рассел Кроу, Билл Мюррей, Кайл Аллен, Джейк Пикинг, Уилл Ропп, Арчи Рено, Джо Адлер

Описание: 1967 год. Чтобы морально поддержать воюющих во Вьетнаме друзей, Чики Донохью решает самолично угостить их американским пивом. Поездка, начавшаяся как спонтанная авантюра, в корне меняет его взгляды на жизнь и войну.

Качество: UHD WEB-DL-HEVC 2160p
Формат: MKV

Видео: 3840x1920 at 23.976 fps, MPEG-H HEVC HDR, ~ 23900 kbps avg
Аудио #01: 48 kHz, AC3, 5.1, 448 Kbps | Дублированный | AppleTV+ | RUS |
Аудио #02: 48 kHz, E-AC3+Atmos, 5.1, 768 Kbps | Дублированный | AppleTV+ | RUS |
Аудио #03: 48 kHz, E-AC3+Atmos, 5.1, 768 Kbps | Дублированный (ТК) | AppleTV+ | RUS |
Аудио #04: 48 kHz, E-AC3+Atmos, 5.1, 768 Kbps | Оригинал | ENG |
скриншот  скриншот  скриншот  скриншот  скриншот  скриншот  

Unique ID : 24918675651293169108942426279167297201 (0x12BF29907FBEE643BFAE4DFDBF9286B1)
Complete name : E:Video1The.Greatest.Beer.Run.Ever.2022.WEB-DL.2160p.HDR.seleZen.mkv
Format : Matroska
Format version : Version 4
File size : 23.6 GiB
Duration : 2 h 6 min
Overall bit rate : 26.6 Mb/s
Movie name : The Greatest Beer Run Ever 2022 from seleZen
Encoded date : UTC 2022-09-30 01:57:22
Writing application : mkvmerge v59.0.0 ('Shining Star') 64-bit
Writing library : libebml v1.4.2 + libmatroska v1.6.4

Video
ID : 1
Format : HEVC
Format/Info : High Efficiency Video Coding
Format profile : Main 10@L5@High
HDR format : SMPTE ST 2086, HDR10 compatible
Codec ID : V_MPEGH/ISO/HEVC
Duration : 2 h 6 min
Bit rate : 23.9 Mb/s
Width : 3 840 pixels
Height : 1 920 pixels
Display aspect ratio : 2.000
Frame rate mode : Constant
Frame rate : 23.976 FPS
Color space : YUV
Chroma subsampling : 4:2:0 (Type 2)
Bit depth : 10 bits
Bits/(Pixel*Frame) : 0.135
Stream size : 21.2 GiB (90%)
Language : English
Default : Yes
Forced : No
Color range : Limited
Color primaries : BT.2020
Transfer characteristics : PQ
Matrix coefficients : BT.2020 non-constant
Mastering display color pri: Display P3
Mastering display luminance: min: 0.0050 cd/m2, max: 1000 cd/m2
Maximum Content Light Level: 899 cd/m2
Maximum Frame-Average Light: 513 cd/m2

Audio #1
ID : 2
Format : AC-3
Format/Info : Audio Coding 3
Commercial name : Dolby Digital
Codec ID : A_AC3
Duration : 2 h 6 min
Bit rate mode : Constant
Bit rate : 448 kb/s
Channel(s) : 6 channels
Channel layout : L R C LFE Ls Rs
Sampling rate : 48.0 kHz
Frame rate : 31.250 FPS (1536 SPF)
Compression mode : Lossy
Stream size : 407 MiB (2%)
Title : Дубляж
Language : Russian
Service kind : Complete Main
Default : Yes
Forced : Yes

Audio #2
ID : 3
Format : E-AC-3 JOC
Format/Info : Enhanced AC-3 with Joint Object Coding
Commercial name : Dolby Digital Plus with Dolby Atmos
Codec ID : A_EAC3
Duration : 2 h 6 min
Bit rate mode : Constant
Bit rate : 768 kb/s
Channel(s) : 6 channels
Channel layout : L R C LFE Ls Rs
Sampling rate : 48.0 kHz
Frame rate : 31.250 FPS (1536 SPF)
Compression mode : Lossy
Stream size : 697 MiB (3%)
Title : Дубляж
Language : Russian
Service kind : Complete Main
Default : No
Forced : No
Complexity index : 16
Number of dynamic objects : 15
Bed channel count : 1 channel
Bed channel configuration : LFE

Audio #3
ID : 4
Format : E-AC-3 JOC
Format/Info : Enhanced AC-3 with Joint Object Coding
Commercial name : Dolby Digital Plus with Dolby Atmos
Codec ID : A_EAC3
Duration : 2 h 6 min
Bit rate mode : Constant
Bit rate : 768 kb/s
Channel(s) : 6 channels
Channel layout : L R C LFE Ls Rs
Sampling rate : 48.0 kHz
Frame rate : 31.250 FPS (1536 SPF)
Compression mode : Lossy
Stream size : 697 MiB (3%)
Title : Дубляж {TK}
Language : Russian
Service kind : Complete Main
Default : No
Forced : No
Complexity index : 16
Number of dynamic objects : 15
Bed channel count : 1 channel
Bed channel configuration : LFE

Audio #4
ID : 5
Format : E-AC-3 JOC
Format/Info : Enhanced AC-3 with Joint Object Coding
Commercial name : Dolby Digital Plus with Dolby Atmos
Codec ID : A_EAC3
Duration : 2 h 6 min
Bit rate mode : Constant
Bit rate : 768 kb/s
Channel(s) : 6 channels
Channel layout : L R C LFE Ls Rs
Sampling rate : 48.0 kHz
Frame rate : 31.250 FPS (1536 SPF)
Compression mode : Lossy
Stream size : 697 MiB (3%)
Title : Original
Language : English
Service kind : Complete Main
Default : No
Forced : No
Complexity index : 16
Number of dynamic objects : 15
Bed channel count : 1 channel
Bed channel configuration : LFE

Text #1
ID : 6
Format : UTF-8
Codec ID : S_TEXT/UTF8
Codec ID/Info : UTF-8 Plain Text
Duration : 2 h 6 min
Bit rate : 4 b/s
Frame rate : 0.010 FPS
Count of elements : 75
Stream size : 4.04 KiB (0%)
Title : Forced
Language : Russian
Default : Yes
Forced : Yes

Text #2
ID : 7
Format : UTF-8
Codec ID : S_TEXT/UTF8
Codec ID/Info : UTF-8 Plain Text
Duration : 2 h 6 min
Bit rate : 99 b/s
Frame rate : 0.213 FPS
Count of elements : 1615
Stream size : 92.0 KiB (0%)
Title : Full
Language : Russian
Default : No
Forced : No

Text #3
ID : 8
Format : UTF-8
Codec ID : S_TEXT/UTF8
Codec ID/Info : UTF-8 Plain Text
Duration : 2 h 6 min
Bit rate : 110 b/s
Frame rate : 0.238 FPS
Count of elements : 1801
Stream size : 102 KiB (0%)
Title : SDH
Language : Russian
Default : No
Forced : No

Text #4
ID : 9
Format : UTF-8
Codec ID : S_TEXT/UTF8
Codec ID/Info : UTF-8 Plain Text
Duration : 2 h 6 min
Bit rate : 91 b/s
Frame rate : 0.212 FPS
Count of elements : 1609
Stream size : 84.3 KiB (0%)
Title : Full
Language : Ukrainian
Default : No
Forced : No

Text #5
ID : 10
Format : UTF-8
Codec ID : S_TEXT/UTF8
Codec ID/Info : UTF-8 Plain Text
Duration : 1 h 57 min
Bit rate : 66 b/s
Frame rate : 0.222 FPS
Count of elements : 1566
Stream size : 57.3 KiB (0%)
Title : Full
Language : English
Default : No
Forced : No

Text #6
ID : 11
Format : UTF-8
Codec ID : S_TEXT/UTF8
Codec ID/Info : UTF-8 Plain Text
Duration : 1 h 57 min
Bit rate : 73 b/s
Frame rate : 0.248 FPS
Count of elements : 1751
Stream size : 63.8 KiB (0%)
Title : SDH
Language : English
Default : No
Forced : No




Скачать За пивом! через торрент https://i120.fastpic.org/big/2022/0930/01/25282a15e64ccca5438acecb987fae01.jpg Скачать, смотреть онлайн За пивом! бесплантно в хорошем качестве Описание: 1967 год. Чтобы морально поддержать воюющих во Вьетнаме друзей, Чики Донохью решает самолично угостить их американским пивом. ... 10 10 3
Торрент: Зарегистрирован [2022-09-30 03:24] · скачан: 194 раз
Статус: √ проверено
Размер: 23.61 GB
Как cкачать? Как скачать За пивом! через торрент | UTorrent

% Раздел Тема Автор DL S | L
Фильмы (WEB-DL 720p, 1080p) [ 11.27 GB ] За пивом! / The Greatest Beer Run Ever | DUB | 1080p bober100 Скачать
7 | 0
Фильмы 2022-2023 [DVDrip, WEB-DLRip, HDrip] (DUB, MVO) [ 2.12 GB ] За пивом! / The Greatest Beer Run Ever | DUB | DLRip-AVC bober100 Скачать
13 | 1
Ultra HD (UHD: 2K, 4K, 8K) [ 20.76 GB ] За пивом! / The Greatest Beer Run Ever | DUB | 2160p, (SDR bober100 Скачать
3 | 0
Фильмы (WEB-DL 720p, 1080p) [ 4.95 GB ] За пивом! / The Greatest Beer Run Ever | DUB | 720p bober100 Скачать
3 | 0

28-11-2019 20:33  


Отключить вcю реклaмy на сайте, в т.ч. и в плеере онлайн просмотра!

    Дорогой пользователь! Огромная просьба, поблагодарите релизера, оцените раздачу и оставьте свои комментарий, если Вы скачали За пивом! через торрент бесплатно!!
    Комментировать посты могут только пользователи прошедшие не сложную регистрацию
    Показать сообщения:    


    За пивом! через торрент
    Скачать бесплатно За пивом!
    За пивом! скачать торрент
    За пивом! смотреть онлайн
    Cкачать фильм За пивом! бесплатно
    За пивом! скачать торрент в хорошем качестве
    За пивом! смотреть онлайн бесплатно в хорошем качестве
    Вы не можете начинать темы
    Вы не можете отвечать на сообщения
    Вы не можете редактировать свои сообщения
    Вы не можете удалять свои сообщения
    Вы не можете голосовать в опросах
    Вы не можете прикреплять файлы к сообщениям
    Вы можете скачивать файлы
    За пивом! / The Greatest Beer Run Ever [2022, Комедия, военный, драма, история, UHD WEB-DL-HEVC 2160p] Дубляж [AppleTV picoco.icu