Достать ножи: Стеклянная луковица

MVO

Добыча

Дубляж

Уэнсдэй

1 сезон

Тор

Дубляж

13 клиническая

1 сезон

Жестокая ночь

MVO

Одни из нас

1 сезон

Deluxe

pack

Рекомендуем

30

Пиратка

ВАЖНО

ВАЖНО

Ghostwire

Пиратка

jed

RePack

nioh2

RePack

RDR2

RePack

NEED FOR SPEED™ PAYBACK

RePack

скачать торрент

Кинопоиск HD

Острые козырьки 6 сезон

6 сезон

FAR CRY 6

RePack

скачать торрент

Лицензия

скачать торрент

MVO

1

1 сезон

скачать торрент

1 сезон

скачать торрент

Лицензия

  

Я знаю, что вы сделали прошлым летом / I Know What You Did Last Summer (Джим Гиллесп) [1997, Ужасы, триллер, детектив, UHD BDRip 2160p, (Dolby Vision Profile 8)] MVO [Лицензия BD CEE]

Я знаю, что вы сделали прошлым летом через торрент piratbit.org

Размер: 40.62 GB | Добавлен: 3 мес. 23 д. назад | Торрент скачан:14 раз
Смотреть онлайн | Скачать | Поддержите нас   

05-10-2022 18:44 Я знаю, что вы сделали прошлым летом Скачать торрент  

Я знаю, что вы сделали прошлым летом
I Know What You Did Last Summer

Год выпуска: 1997
Страна: США
Студия: Mandalay Entertainment, Original Film, Summer Knowledge LLC
Жанр: Ужасы, триллер, детектив
Продолжительность: 01:40:53
Перевод: Профессиональный (многоголосый) | Лицензия BD CEE
Субтитры: русские (форс., полные), английские (полные, SDH)

Режиссер: Джим Гиллесп

rating

В ролях: Дженнифер Лав Хьюитт, Сара Мишель Геллар, Райан Филип, Фредди Принц мл., Бриджет Уилсон, Энн Хейч, Джонни Галески, Мус Уотсон, Стюарт Грир, Дж. Дон Фергюссон, Дебора Хобарт, Мари МакМиллан, Расол Дж'Хан, Дэн Олбрайт, Линда Кларк

Описание: Компания выпускников весело провела вечер на берегу моря. Возвращаясь на машине домой, они сбивают непонятно откуда взявшегося человека. Решив, что он мертв, и не желая лишних неприятностей, они сбрасывают тело в море. А ровно через год получают письмо… Кто-то знает их тайну. Кто-то знает, что они натворили прошлым летом!

Качество: UHD BDRip 2160p | Dolby Vision Profile 8
Формат: MKV

Видео: HEVC (x265), HDR, Dolby Vision Profile 8, 3840x1606, ~56400 kbps, 23,976 fps, 10 bit
Аудио: русский, AC3, 5.1 ch, 48 kHz, 640 kbps
Аудио: английский, AC3, 5.1 ch, 48 kHz, 640 kbps

Общее
Уникальный идентификатор : 224104500250641952107872494019606863419 (0xA898F4EEE8C0276F1E8B7FAAB61DDE3B)
Полное имя : D:YaZnayuChtoVyZdelaliProshlymLetomBDRip2160p.mkv
Формат : Matroska
Версия формата : Version 4
Размер файла : 40,6 Гбайт
Продолжительность : 1 ч. 40 м.
Общий поток : 57,7 Мбит/сек
Дата кодирования : UTC 2022-10-05 11:59:38
Программа кодирования : mkvmerge v64.0.0 ('Willows') 64-bit
Библиотека кодирования : libebml v1.4.2 + libmatroska v1.6.4

Видео
Идентификатор : 1
Формат : HEVC
Формат/Информация : High Efficiency Video Coding
Профиль формата : Main 10@L5.1@High
HDR format : Dolby Vision, Version 1.0, dvhe.08.06, BL+RPU, HDR10 compatible / SMPTE ST 2086, HDR10 compatible
Идентификатор кодека : V_MPEGH/ISO/HEVC
Продолжительность : 1 ч. 40 м.
Битрейт : 56,4 Мбит/сек
Ширина : 3 840 пикселей
Высота : 1 606 пикселей
Соотношение сторон : 2,40:1
Режим частоты кадров : Постоянный
Частота кадров : 23,976 (23976/1000) кадра/сек
Цветовое пространство : YUV
Субдискретизация насыщенности : 4:2:0 (Type 2)
Битовая глубина : 10 бит
Бит/(Пиксели*Кадры) : 0.381
Размер потока : 39,7 Гбайт (98%)
Заголовок : Sisendrovich(R)
Библиотека кодирования : x265 3.5+39-931178347:[Windows][GCC 12.2.0][64 bit] 10bit
Настройки программы : cpuid=1111039 / frame-threads=4 / numa-pools=24 / wpp / no-pmode / no-pme / no-psnr / no-ssim / log-level=2 / input-csp=1 / input-res=3840x1606 / interlace=0 / total-frames=145104 / level-idc=51 / high-tier=1 / uhd-bd=0 / ref=5 / no-allow-non-conformance / repeat-headers / annexb / aud / no-eob / no-eos / hrd / info / hash=0 / no-temporal-layers / open-gop / min-keyint=23 / keyint=240 / gop-lookahead=0 / bframes=16 / b-adapt=2 / b-pyramid / bframe-bias=0 / rc-lookahead=60 / lookahead-slices=0 / scenecut=40 / no-hist-scenecut / radl=0 / no-splice / no-intra-refresh / ctu=64 / min-cu-size=8 / rect / amp / max-tu-size=32 / tu-inter-depth=3 / tu-intra-depth=3 / limit-tu=0 / rdoq-level=2 / dynamic-rd=0.00 / no-ssim-rd / signhide / no-tskip / nr-intra=0 / nr-inter=0 / no-constrained-intra / no-strong-intra-smoothing / max-merge=5 / limit-refs=0 / limit-modes / me=3 / subme=7 / merange=57 / temporal-mvp / no-frame-dup / no-hme / weightp / weightb / no-analyze-src-pics / deblock=-1:-1 / no-sao / no-sao-non-deblock / rd=6 / selective-sao=0 / no-early-skip / no-rskip / no-fast-intra / no-tskip-fast / no-cu-lossless / b-intra / no-splitrd-skip / rdpenalty=0 / psy-rd=2.00 / psy-rdoq=1.00 / no-rd-refine / no-lossless / cbqpoffs=0 / crqpoffs=0 / rc=crf / crf=19.0 / qcomp=0.70 / qpstep=4 / stats-write=0 / stats-read=0 / vbv-maxrate=160000 / vbv-bufsize=160000 / vbv-init=0.9 / min-vbv-fullness=50.0 / max-vbv-fullness=80.0 / crf-max=0.0 / crf-min=0.0 / ipratio=1.40 / pbratio=1.30 / aq-mode=3 / aq-strength=0.80 / no-cutree / zone-count=0 / no-strict-cbr / qg-size=32 / no-rc-grain / qpmax=69 / qpmin=0 / no-const-vbv / sar=1 / overscan=0 / videoformat=5 / range=0 / colorprim=9 / transfer=16 / colormatrix=9 / chromaloc=1 / chromaloc-top=2 / chromaloc-bottom=2 / display-window=0 / master-display=G(8500,39850)B(6550,2300)R(35400,14600)WP(15635,16450)L(10000000,1) / cll=1120,320 / min-luma=0 / max-luma=1023 / log2-max-poc-lsb=8 / vui-timing-info / vui-hrd-info / slices=1 / no-opt-qp-pps / no-opt-ref-list-length-pps / no-multi-pass-opt-rps / scenecut-bias=0.05 / hist-threshold=0.03 / no-opt-cu-delta-qp / no-aq-motion / hdr10 / hdr10-opt / no-dhdr10-opt / no-idr-recovery-sei / analysis-reuse-level=0 / analysis-save-reuse-level=0 / analysis-load-reuse-level=0 / scale-factor=0 / refine-intra=0 / refine-inter=0 / refine-mv=1 / refine-ctu-distortion=0 / no-limit-sao / ctu-info=0 / no-lowpass-dct / refine-analysis-type=0 / copy-pic=1 / max-ausize-factor=1.0 / no-dynamic-refine / no-single-sei / no-hevc-aq / no-svt / no-field / qp-adaptation-range=1.00 / scenecut-aware-qp=0conformance-window-offsets / right=0 / bottom=0 / decoder-max-rate=0 / no-vbv-live-multi-pass
Язык : English
Default : Да
Forced : Нет
Цветовой диапазон : Limited
Основные цвета : BT.2020
Характеристики трансфера : PQ
Коэффициенты матрицы : BT.2020 non-constant
Mastering display color primaries : BT.2020
Mastering display luminance : min: 0.0001 cd/m2, max: 1000 cd/m2
Maximum Content Light Level : 1120 cd/m2
Maximum Frame-Average Light Level : 320 cd/m2

Аудио #1
Идентификатор : 2
Формат : AC-3
Формат/Информация : Audio Coding 3
Коммерческое название : Dolby Digital
Идентификатор кодека : A_AC3
Продолжительность : 1 ч. 40 м.
Вид битрейта : Постоянный
Битрейт : 640 Кбит/сек
Каналы : 6 каналов
Channel layout : L R C LFE Ls Rs
Частота : 48,0 КГц
Частота кадров : 31,250 кадров/сек (1536 SPF)
Метод сжатия : С потерями
Размер потока : 462 Мбайт (1%)
Заголовок : rus
Язык : Russian
Default : Да
Forced : Нет

Аудио #2
Идентификатор : 3
Формат : AC-3
Формат/Информация : Audio Coding 3
Коммерческое название : Dolby Digital
Идентификатор кодека : A_AC3
Продолжительность : 1 ч. 40 м.
Вид битрейта : Постоянный
Битрейт : 640 Кбит/сек
Каналы : 6 каналов
Channel layout : L R C LFE Ls Rs
Частота : 48,0 КГц
Частота кадров : 31,250 кадров/сек (1536 SPF)
Метод сжатия : С потерями
Размер потока : 462 Мбайт (1%)
Заголовок : eng
Язык : English
Default : Нет
Forced : Нет

Текст #1
Идентификатор : 4
Формат : UTF-8
Идентификатор кодека : S_TEXT/UTF8
Идентификатор кодека/Информация : UTF-8 Plain Text
Продолжительность : 22 м. 57 с.
Битрейт : 1 бит/сек
Count of elements : 2
Размер потока : 181 байт (0%)
Заголовок : rusForced
Язык : Russian
Default : Да
Forced : Нет

Текст #2
Идентификатор : 5
Формат : UTF-8
Идентификатор кодека : S_TEXT/UTF8
Идентификатор кодека/Информация : UTF-8 Plain Text
Продолжительность : 1 ч. 35 м.
Битрейт : 71 бит/сек
Count of elements : 718
Размер потока : 50,2 Кбайт (0%)
Заголовок : rusFull
Язык : Russian
Default : Нет
Forced : Нет

Текст #3
Идентификатор : 6
Формат : UTF-8
Идентификатор кодека : S_TEXT/UTF8
Идентификатор кодека/Информация : UTF-8 Plain Text
Продолжительность : 1 ч. 39 м.
Битрейт : 50 бит/сек
Count of elements : 966
Размер потока : 36,5 Кбайт (0%)
Заголовок : engFull
Язык : English
Default : Нет
Forced : Нет

Текст #4
Идентификатор : 7
Формат : UTF-8
Идентификатор кодека : S_TEXT/UTF8
Идентификатор кодека/Информация : UTF-8 Plain Text
Продолжительность : 1 ч. 39 м.
Битрейт : 55 бит/сек
Count of elements : 1123
Размер потока : 40,8 Кбайт (0%)
Заголовок : engSDH
Язык : English
Default : Нет
Forced : Нет

Меню
00:00:00.000 : en:Chapter 01
00:08:39.810 : en:Chapter 02
00:20:56.380 : en:Chapter 03
00:25:23.855 : en:Chapter 04
00:37:10.353 : en:Chapter 05
00:42:31.257 : en:Chapter 06
00:53:11.313 : en:Chapter 07
01:00:57.987 : en:Chapter 08
01:08:01.911 : en:Chapter 09
01:14:08.986 : en:Chapter 10
01:16:49.146 : en:Chapter 11
01:18:58.483 : en:Chapter 12
01:22:48.463 : en:Chapter 13
01:24:50.043 : en:Chapter 14
01:31:42.997 : en:Chapter 15
01:34:47.515 : en:Chapter 16




Скачать Я знаю, что вы сделали прошлым летом через торрент https://i120.fastpic.org/big/2022/1005/05/8155f50237e35fec2270f7ab831c0805.png Скачать, смотреть онлайн Я знаю, что вы сделали прошлым летом бесплантно в хорошем качестве Описание: Компания выпускников весело провела вечер на берегу моря. Возвращаясь на машине домой, они сбивают непонятно откуда взявшегося ... 10 10 4
Торрент: Зарегистрирован [2022-10-05 18:44] · скачан: 14 раз
Статус: √ проверено
Размер: 40.62 GB
Как cкачать? Как скачать Я знаю, что вы сделали прошлым летом через торрент | UTorrent

% Раздел Тема Автор DL S | L
Фильмы [HD 720p, 1080p] (Хороший звук DUB, MVO) [ 5.05 GB ] Я знаю, что вы сделали прошлым летом / I Know What You Did Last Summer | Лицензия BD CEE | 1080p, (10 bit bober100 Скачать
1 | 0

28-11-2019 20:33  


Отключить вcю реклaмy на сайте, в т.ч. и в плеере онлайн просмотра!

05-10-2022 22:03 Я знаю, что вы сделали прошлым летом Скачать торрент  

пора переименовывать фильм в "Я знаю, что вы сделали одним летом 25 лет назад")



    Дорогой пользователь! Огромная просьба, поблагодарите релизера, оцените раздачу и оставьте свои комментарий, если Вы скачали Я знаю, что вы сделали прошлым летом через торрент бесплатно!!
    Комментировать посты могут только пользователи прошедшие не сложную регистрацию
    Показать сообщения:    


    Я знаю, что вы сделали прошлым летом через торрент
    Скачать бесплатно Я знаю, что вы сделали прошлым летом
    Я знаю, что вы сделали прошлым летом скачать торрент
    Я знаю, что вы сделали прошлым летом смотреть онлайн
    Cкачать фильм Я знаю, что вы сделали прошлым летом бесплатно
    Я знаю, что вы сделали прошлым летом скачать торрент в хорошем качестве
    Я знаю, что вы сделали прошлым летом смотреть онлайн бесплатно в хорошем качестве
    Вы не можете начинать темы
    Вы не можете отвечать на сообщения
    Вы не можете редактировать свои сообщения
    Вы не можете удалять свои сообщения
    Вы не можете голосовать в опросах
    Вы не можете прикреплять файлы к сообщениям
    Вы можете скачивать файлы
    Я знаю, что вы сделали прошлым летом / I Know What You Did Last Summer [1997, Ужасы, триллер, детектив, UHD BDRip 2160p, ] MVO [Лицензия BD CEE] смотреть онлайн, скачать торрент picoco.icu