Достать ножи: Стеклянная луковица

MVO

Добыча

Дубляж

Уэнсдэй

1 сезон

Тор

Дубляж

13 клиническая

1 сезон

Жестокая ночь

MVO

Одни из нас

1 сезон

Deluxe

pack

Рекомендуем

30

Пиратка

ВАЖНО

ВАЖНО

Ghostwire

Пиратка

jed

RePack

nioh2

RePack

RDR2

RePack

NEED FOR SPEED™ PAYBACK

RePack

скачать торрент

Кинопоиск HD

Острые козырьки 6 сезон

6 сезон

FAR CRY 6

RePack

скачать торрент

Лицензия

скачать торрент

MVO

1

1 сезон

скачать торрент

1 сезон

скачать торрент

Лицензия

  

Топ Ган: Мэверик / Top Gun: Maverick (Джозеф Косински) [2022, Боевик, драма, UHD BDRemux 2160p] [IMAX] Дубляж [Пифагор]

Топ Ган: Мэверик через торрент piratbit.org

Раздают: 3 [ 987 KB/s ]
Размер: 60.37 GB | Добавлен: 3 мес. 23 д. назад | Торрент скачан:91 раз
Смотреть онлайн | Скачать | Поддержите нас   

16-10-2022 04:48 Топ Ган: Мэверик Скачать торрент  

Топ Ган: Мэверик
Top Gun: Maverick

Год выпуска: 2022
Страна: США
Студия: Don Simpson/Jerry Bruckheimer Films, Jerry Bruckheimer Films, Paramount Pictures, Skydance Productions
Жанр: Боевик, драма
Продолжительность: 02:10:14
Перевод: Дублированный | Пифагор
Субтитры: Русские (Forced, full), украинские (full), английские

Режиссер: Джозеф Косински

rating

В ролях: Том Круз, Майлз Теллер, Дженнифер Коннелли, Джон Хэмм, Глен Пауэлл, Льюис Пуллман, Вэл Килмер, Моника Барбаро, Эд Харрис, Джин Луиса Келли и другие.

Описание: Пит Митчелл по прозвищу Мэверик более 30 лет остается одним из лучших пилотов ВМФ: бесстрашный летчик-испытатель, он расширяет границы возможного и старательно избегает повышения в звании, которое заставило бы его приземлиться навсегда. Приступив к подготовке отряда выпускников «Топ Ган» для специальной миссии, подобной которой никогда не было, Мэверик встречает лейтенанта Брэдли Брэдшоу, сына своего покойного друга, лейтенанта Ника Брэдшоу. Впереди - неопределенность, за спиной - призраки прошлого. Мэверик вынужден противостоять своим глубинным страхам, которые грозят ожить в рамках миссии, требующей исключительной самоотверженности от тех, кто будет назначен на вылет.

Качество: UHD BDRemux 2160p | IMAX
Формат: MKV

Видео: 3840x2160 at 23.976 fps, MPEG-H HEVC HDR ~ 61000 kbps avg
Аудио #01: 48 kHz, AC3, 5.1, 384 Kbps | Дублированный | Пифагор | RUS |
Аудио #02: 48 kHz, TrueHD, 7.1, 4304 Kbps | Оригинал | ENG |
Аудио #03: 48 kHz, AC3, 5.1, 640 Kbps | Оригинал | ENG |
скриншот  скриншот  скриншот  скриншот  скриншот  скриншот  

General
Unique ID: 320244656594483768036001749884599786960 (0xF0ECE09B17D313AF5C12ADD73F07DDD0)
Complete name: D:\Videos\Top.Gun.Maverick.2022.BDREMUX.2160p.HDR.seleZen.mkv
Format: Matroska
Format version: Version 4
File size: 60.4 GiB
Duration: 2 h 10 min
Overall bit rate mode: Variable
Overall bit rate: 66.4 Mb/s
Movie name: Top Gun Maverick 2022 from seleZen
Encoded date: UTC 2022-10-15 07:39:34
Writing application: mkvmerge v59.0.0 ('Shining Star') 64-bit
Writing library: libebml v1.4.2 + libmatroska v1.6.4

Video
ID: 1
Format: HEVC
Format/Info: High Efficiency Video Coding
Format profile: Main 10@L5.1@High
HDR format: SMPTE ST 2086, HDR10 compatible
Codec ID: V_MPEGH/ISO/HEVC
Duration: 2 h 10 min
Bit rate: 61.0 Mb/s
Width: 3 840 pixels
Height: 2 160 pixels
Display aspect ratio: 16:9
Frame rate mode: Constant
Frame rate: 23.976 (24000/1001) FPS
Color space: YUV
Chroma subsampling: 4:2:0 (Type 2)
Bit depth: 10 bits
Bits/(Pixel*Frame): 0.307
Stream size: 55.5 GiB (92%)
Language: English
Default: Yes
Forced: No
Color range: Limited
Color primaries: BT.2020
Transfer characteristics: PQ
Matrix coefficients: BT.2020 non-constant
Mastering display color pri: Display P3
Mastering display luminance: min: 0.0001 cd/m2, max: 1000 cd/m2
Maximum Content Light Level: 617 cd/m2
Maximum Frame-Average Light: 496 cd/m2

Audio #1
ID: 2
Format: AC-3
Format/Info: Audio Coding 3
Commercial name: Dolby Digital
Codec ID: A_AC3
Duration: 2 h 10 min
Bit rate mode: Constant
Bit rate: 384 kb/s
Channel(s): 6 channels
Channel layout: L R C LFE Ls Rs
Sampling rate: 48.0 kHz
Frame rate: 31.250 FPS (1536 SPF)
Compression mode: Lossy
Stream size: 358 MiB (1%)
Title: Дубляж
Language: Russian
Service kind: Complete Main
Default: Yes
Forced: Yes

Audio #2
ID: 3
Format: MLP FBA 16-ch
Format/Info: Meridian Lossless Packing FBA with 16-channel presentation
Commercial name: Dolby TrueHD with Dolby Atmos
Codec ID: A_TRUEHD
Duration: 2 h 10 min
Bit rate mode: Variable
Bit rate: 4 304 kb/s
Maximum bit rate: 7 251 kb/s
Channel(s): 8 channels
Channel layout: L R C LFE Ls Rs Lb Rb
Sampling rate: 48.0 kHz
Frame rate: 1 200.000 FPS (40 SPF)
Compression mode: Lossless
Stream size: 3.92 GiB (6%)
Title: Original
Language: English
Default: No
Forced: No
Number of dynamic objects: 11
Bed channel count: 1 channel
Bed channel configuration: LFE

Audio #3
ID: 4
Format: AC-3
Format/Info: Audio Coding 3
Commercial name: Dolby Digital
Format settings: Dolby Surround EX
Codec ID: A_AC3
Duration: 2 h 10 min
Bit rate mode: Constant
Bit rate: 640 kb/s
Channel(s): 6 channels
Channel layout: L R C LFE Ls Rs
Sampling rate: 48.0 kHz
Frame rate: 31.250 FPS (1536 SPF)
Compression mode: Lossy
Stream size: 596 MiB (1%)
Language: English
Service kind: Complete Main
Default: No
Forced: No

Text #1
ID: 5
Format: UTF-8
Codec ID: S_TEXT/UTF8
Codec ID/Info: UTF-8 Plain Text
Duration: 2 h 2 min
Bit rate: 1 b/s
Frame rate: 0.005 FPS
Count of elements: 35
Stream size: 1.54 KiB (0%)
Title: Forced
Language: Russian
Default: Yes
Forced: Yes

Text #2
ID: 6
Format: UTF-8
Codec ID: S_TEXT/UTF8
Codec ID/Info: UTF-8 Plain Text
Duration: 2 h 9 min
Bit rate: 75 b/s
Frame rate: 0.191 FPS
Count of elements: 1479
Stream size: 71.3 KiB (0%)
Title: Full
Language: Russian
Default: No
Forced: No

Text #3
ID: 7
Format: UTF-8
Codec ID: S_TEXT/UTF8
Codec ID/Info: UTF-8 Plain Text
Duration: 2 h 9 min
Bit rate: 75 b/s
Frame rate: 0.190 FPS
Count of elements: 1473
Stream size: 71.9 KiB (0%)
Title: Full
Language: Ukrainian
Default: No
Forced: No

Text #4
ID: 8
Format: UTF-8
Codec ID: S_TEXT/UTF8
Codec ID/Info: UTF-8 Plain Text
Duration: 1 h 57 min
Bit rate: 52 b/s
Frame rate: 0.207 FPS
Count of elements: 1453
Stream size: 45.4 KiB (0%)
Title: Full
Language: English
Default: No
Forced: No

Menu
00:00:00.000: Глава 01
00:03:05.560: Глава 02
00:13:40.111: Глава 03
00:21:23.282: Глава 04
00:32:39.416: Глава 05
00:44:47.768: Глава 06
00:53:54.940: Глава 07
01:00:09.856: Глава 08
01:07:39.305: Глава 09
01:15:46.167: Глава 10
01:23:37.721: Глава 11
01:31:49.129: Глава 12
01:41:32.920: Глава 13
01:48:48.272: Глава 14
01:57:22.410: Глава 15
02:03:13.136: Глава 16




Скачать Топ Ган: Мэверик через торрент https://i120.fastpic.org/big/2022/1016/e8/f82c013ea0936f852a288ec4021aeae8.jpg Скачать, смотреть онлайн Топ Ган: Мэверик бесплантно в хорошем качестве Описание: Пит Митчелл по прозвищу Мэверик более 30 лет остается одним из лучших пилотов ВМФ: бесстрашный летчик-испытатель, он расширяет ... 5.8 10 17
Торрент: Зарегистрирован [2022-10-16 04:48] · скачан: 91 раз
Статус: √ проверено
Размер: 60.37 GB
Как cкачать? Как скачать Топ Ган: Мэверик через торрент | UTorrent

% Раздел Тема Автор DL S | L
Фильмы [HD 720p, 1080p] (Хороший звук DUB, MVO) [ 11.94 GB ] Топ Ган: Мэверик / Top Gun: Maverick | Пифагор | 1080p bober100 Скачать
6 | 0
Ultra HD (UHD: 2K, 4K, 8K) [ 70.1 GB ] Топ Ган: Мэверик / Top Gun: Maverick | Пифагор | 2160p, (Dolby Vision bober100 Скачать
2 | 0
Ultra HD (UHD: 2K, 4K, 8K) [ 60.4 GB ] Топ Ган: Мэверик / Top Gun: Maverick | Пифагор | 2160p, (Dolby Vision Profile 8 bober100 Скачать
2 | 1
Фильмы 2022-2023 [DVDrip, WEB-DLRip, HDrip] (DUB, MVO) [ 2.18 GB ] Топ Ган: Мэверик / Top Gun: Maverick | Пифагор | BDRip bober100 Скачать
7 | 1
Фильмы (Blu-ray, BD-Remux, HDDVD) [ 32.11 GB ] Топ Ган: Мэверик / Top Gun: Maverick | Пифагор | BD Remux 1080p bober100 Скачать
2 | 0
Фильмы 2022-2023 [DVDrip, WEB-DLRip, HDrip] (DUB, MVO) [ 2.16 GB ] Топ Ган: Мэверик / Top Gun: Maverick | Пифагор | DLRip-AVC bober100 Скачать
22 | 0
Фильмы (HD 720p, 1080p) (48-60 fps) [ 5.74 GB ] Топ Ган: Мэверик / Top Gun: Maverick | Дубляж | DLRip 720p / 60 FPS slaventi-69 Скачать
5 | 1

28-11-2019 20:33  


Отключить вcю реклaмy на сайте, в т.ч. и в плеере онлайн просмотра!

    Дорогой пользователь! Огромная просьба, поблагодарите релизера, оцените раздачу и оставьте свои комментарий, если Вы скачали Топ Ган: Мэверик через торрент бесплатно!!
    Комментировать посты могут только пользователи прошедшие не сложную регистрацию
    Показать сообщения:    


    Топ Ган: Мэверик через торрент
    Скачать бесплатно Топ Ган: Мэверик
    Топ Ган: Мэверик скачать торрент
    Топ Ган: Мэверик смотреть онлайн
    Cкачать фильм Топ Ган: Мэверик бесплатно
    Топ Ган: Мэверик скачать торрент в хорошем качестве
    Топ Ган: Мэверик смотреть онлайн бесплатно в хорошем качестве
    Вы не можете начинать темы
    Вы не можете отвечать на сообщения
    Вы не можете редактировать свои сообщения
    Вы не можете удалять свои сообщения
    Вы не можете голосовать в опросах
    Вы не можете прикреплять файлы к сообщениям
    Вы можете скачивать файлы
    Топ Ган: Мэверик / Top Gun: Maverick [2022, Боевик, драма, UHD BDRemux 2160p] [IMAX] Дубляж [Пифагор] смотреть онлайн, скачать торрент picoco.icu