Достать ножи: Стеклянная луковица

MVO

Добыча

Дубляж

Уэнсдэй

1 сезон

Тор

Дубляж

13 клиническая

1 сезон

Жестокая ночь

MVO

Одни из нас

1 сезон

Deluxe

pack

Рекомендуем

30

Пиратка

ВАЖНО

ВАЖНО

Ghostwire

Пиратка

jed

RePack

nioh2

RePack

RDR2

RePack

NEED FOR SPEED™ PAYBACK

RePack

скачать торрент

Кинопоиск HD

Острые козырьки 6 сезон

6 сезон

FAR CRY 6

RePack

скачать торрент

Лицензия

скачать торрент

MVO

1

1 сезон

скачать торрент

1 сезон

скачать торрент

Лицензия

  

Охота на ведьм / Военная охота / WarHunt (Мауро Боррелли) [2022, Ужасы, боевик, UHD BDRemux 2160p] [GER Transfer] Дубляж [Pride Production]

Охота на ведьм через торрент piratbit.org

Раздают: 1 [ 69 KB/s ] Качают: 1 [ 0 KB/s ]
Размер: 40.23 GB | Добавлен: 3 мес. 10 д. назад | Торрент скачан:64 раза
Смотреть онлайн | Скачать | Поддержите нас   

30-10-2022 00:44 Охота на ведьм Скачать торрент  

Охота на ведьм / Военная охота
WarHunt

Год выпуска: 2022
Страна: США, Латвия
Студия: Berkeley Media Group, Forma Pro Films, RNG Entertainment
Жанр: Ужасы, боевик
Продолжительность: 01:32:38
Перевод: Дублированный | Pride Production
Субтитры: Английские, немецкие

Режиссер: Мауро Боррелли

rating

В ролях: Микки Рурк, Роберт Неппер, Джексон Рэтбоун, Полина Пушкарева, Джош Бердетт, Алекс Миллс, Фредерик Вагнер, Тимо Уиллман, Бен Маккьюн, Мэтт Мелла, Яна Хербста

Описание: 1945 год. Военный грузовой самолёт США внезапно теряет управление и падает глубоко в тылу врага посреди немецкого Шварцвальда. Майор Джонсон отправляет отряд забрать сверхсекретные материалы, которые перевозил самолёт. Во главе с сержантом Брюэром солдаты отправляются вглубь леса рядом с местом крушения. Вскоре они обнаруживают повешенных нацистских солдат и другие трупы с древними магическими символами, а затем подвергается атаке мощной сверхъестественной силы.

Качество: UHD BDRemux 2160p | GER Transfer
Формат: MKV

Видео: 3840x2160 at 23.976 fps, MPEG-H HEVC HDR ~ 59800 kbps avg
Аудио #01: 48 kHz, AC3, 5.1, 384 Kbps | Дублированный | Pride Production | RUS |
Аудио #02: 48 kHz, DTS-HD MA, 5.1, 2163 Kbps | Оригинал | ENG |
скриншот  скриншот  скриншот  скриншот  скриншот  скриншот  

General
Unique ID : 128271710977427581496218643243261395531 (0x60803BA0930D789B68961D161502824B)
Complete name : D:VideosWarHunt.2022.BDREMUX.2160p.HDR.seleZen.mkv
Format : Matroska
Format version : Version 4
File size : 40.2 GiB
Duration : 1 h 32 min
Overall bit rate mode : Variable
Overall bit rate : 62.3 Mb/s
Movie name : WarHunt 2022 from seleZen
Encoded date : UTC 2022-10-29 19:44:06
Writing application : mkvmerge v59.0.0 ('Shining Star') 64-bit
Writing library : libebml v1.4.2 + libmatroska v1.6.4

Video
ID : 1
Format : HEVC
Format/Info : High Efficiency Video Coding
Format profile : Main 10@L5.1@High
HDR format : SMPTE ST 2094 App 4, Version 1, HDR10+ Profile B compatible
Codec ID : V_MPEGH/ISO/HEVC
Duration : 1 h 32 min
Bit rate : 59.8 Mb/s
Width : 3 840 pixels
Height : 2 160 pixels
Display aspect ratio : 16:9
Frame rate mode : Constant
Frame rate : 23.976 (24000/1001) FPS
Color space : YUV
Chroma subsampling : 4:2:0 (Type 2)
Bit depth : 10 bits
Bits/(Pixel*Frame) : 0.300
Stream size : 38.6 GiB (96%)
Language : English
Default : Yes
Forced : No
Color range : Limited
Color primaries : BT.2020
Transfer characteristics : PQ
Matrix coefficients : BT.2020 non-constant
Mastering display color pri: Display P3
Mastering display luminance: min: 0.0001 cd/m2, max: 1000 cd/m2
Maximum Content Light Level: 1288 cd/m2
Maximum Frame-Average Light: 177 cd/m2

Audio #1
ID : 2
Format : AC-3
Format/Info : Audio Coding 3
Commercial name : Dolby Digital
Codec ID : A_AC3
Duration : 1 h 32 min
Bit rate mode : Constant
Bit rate : 384 kb/s
Channel(s) : 6 channels
Channel layout : L R C LFE Ls Rs
Sampling rate : 48.0 kHz
Frame rate : 31.250 FPS (1536 SPF)
Compression mode : Lossy
Stream size : 253 MiB (1%)
Title : Дубляж
Language : Russian
Service kind : Complete Main
Default : Yes
Forced : Yes

Audio #2
ID : 3
Format : DTS XLL
Format/Info : Digital Theater Systems
Commercial name : DTS-HD Master Audio
Codec ID : A_DTS
Duration : 1 h 32 min
Bit rate mode : Variable
Bit rate : 2 163 kb/s
Channel(s) : 6 channels
Channel layout : C L R Ls Rs LFE
Sampling rate : 48.0 kHz
Frame rate : 93.750 FPS (512 SPF)
Bit depth : 16 bits
Compression mode : Lossless
Stream size : 1.40 GiB (3%)
Title : Original
Language : English
Default : No
Forced : No

Text
ID : 4
Format : UTF-8
Codec ID : S_TEXT/UTF8
Codec ID/Info : UTF-8 Plain Text
Duration : 1 h 29 min
Bit rate : 41 b/s
Frame rate : 0.180 FPS
Count of elements : 967
Stream size : 26.9 KiB (0%)
Title : SDH
Language : English
Default : No
Forced : No

Menu
00:00:00.000 : Chapter 01
00:09:02.375 : Chapter 02
00:17:35.930 : Chapter 03
00:24:48.028 : Chapter 04
00:30:37.419 : Chapter 05
00:37:27.412 : Chapter 06
00:47:27.011 : Chapter 07
00:52:01.785 : Chapter 08
01:02:06.681 : Chapter 09
01:07:41.224 : Chapter 10
01:19:25.260 : Chapter 11
01:27:06.263 : Chapter 12




Скачать Охота на ведьм через торрент https://i120.fastpic.org/big/2022/1030/66/102a8ac841143648534af85e97c91f66.jpg Скачать, смотреть онлайн Охота на ведьм бесплантно в хорошем качестве Описание: 1945 год. Военный грузовой самолёт США внезапно теряет управление и падает глубоко в тылу врага посреди немецкого Шварцвальда. ... 10 10 3
Торрент: Зарегистрирован [2022-10-30 00:44] · скачан: 64 раз
Статус: √ проверено
Размер: 40.23 GB
Как cкачать? Как скачать Охота на ведьм через торрент | UTorrent

% Раздел Тема Автор DL S | L
Фильмы 2022-2023 [DVDrip, WEB-DLRip, HDrip] (DUB, MVO) [ 746 MB ] Охота на ведьм / Военная охота / WarHunt | DUB | BDRip bober100 Скачать
1 | 0
Фильмы 2022-2023 [DVDrip, WEB-DLRip, HDrip] (DUB, MVO) [ 1.46 GB ] Охота на ведьм / Военная охота / WarHunt | DUB | BDRip bober100 Скачать
1 | 0
Фильмы (Blu-ray, BD-Remux, HDDVD) [ 19.73 GB ] Охота на ведьм / Военная охота / WarHunt | DUB | BD Remux 1080p bober100 Скачать
2 | 0
Фильмы (Blu-ray, BD-Remux, HDDVD) [ 24.54 GB ] Охота на ведьм / Военная охота / WarHunt | DUB | BD Remux 1080p bober100 Скачать
1 | 0
Фильмы [HD 720p, 1080p] (Хороший звук DUB, MVO) [ 2.91 GB ] Охота на ведьм / Военная охота / WarHunt | DUB | 720p bober100 Скачать
5 | 0
Фильмы [HD 720p, 1080p] (Хороший звук DUB, MVO) [ 9.69 GB ] Охота на ведьм / Военная охота / WarHunt | DUB | 1080p bober100 Скачать
3 | 0

28-11-2019 20:33  


Отключить вcю реклaмy на сайте, в т.ч. и в плеере онлайн просмотра!

    Дорогой пользователь! Огромная просьба, поблагодарите релизера, оцените раздачу и оставьте свои комментарий, если Вы скачали Охота на ведьм через торрент бесплатно!!
    Комментировать посты могут только пользователи прошедшие не сложную регистрацию
    Показать сообщения:    


    Охота на ведьм через торрент
    Скачать бесплатно Охота на ведьм
    Охота на ведьм скачать торрент
    Охота на ведьм смотреть онлайн
    Cкачать фильм Охота на ведьм бесплатно
    Охота на ведьм скачать торрент в хорошем качестве
    Охота на ведьм смотреть онлайн бесплатно в хорошем качестве
    Вы не можете начинать темы
    Вы не можете отвечать на сообщения
    Вы не можете редактировать свои сообщения
    Вы не можете удалять свои сообщения
    Вы не можете голосовать в опросах
    Вы не можете прикреплять файлы к сообщениям
    Вы можете скачивать файлы
    Охота на ведьм / Военная охота / WarHunt [2022, Ужасы, боевик, UHD BDRemux 2160p] [GER Transfer] Дубляж [Pride Production] смотреть онлайн, скачать торрент picoco.icu