Достать ножи: Стеклянная луковица

MVO

Добыча

Дубляж

Уэнсдэй

1 сезон

Тор

Дубляж

13 клиническая

1 сезон

Жестокая ночь

MVO

Одни из нас

1 сезон

Deluxe

pack

Рекомендуем

30

Пиратка

ВАЖНО

ВАЖНО

Ghostwire

Пиратка

jed

RePack

nioh2

RePack

RDR2

RePack

NEED FOR SPEED™ PAYBACK

RePack

скачать торрент

Кинопоиск HD

Острые козырьки 6 сезон

6 сезон

FAR CRY 6

RePack

скачать торрент

Лицензия

скачать торрент

MVO

1

1 сезон

скачать торрент

1 сезон

скачать торрент

Лицензия

  

Влacть пса / The Power of the Dog (Джейн Кэмпион) [2021, Драма, мелодрама, вестерн, UHD BDRemux 2160p] Дубляж [Пифагор / Netflix]

Влacть пса через торрент piratbit.org

Размер: 69.93 GB | Добавлен: 2 мес. 29 д. назад | Торрент скачан:19 раз
Смотреть онлайн | Скачать | Поддержите нас   

06-11-2022 17:38 Влacть пса Скачать торрент  

Влacть пса
The Power of the Dog

Год выпуска: 2021
Страна: Великобритания, Австралия, США, Канада, Новая Зеландия
Студия: BBC Films, Brightstar, Cross City Films, Max Films International, New Zealand Film Commission, See-Saw Films
Жанр: Драма, мелодрама, вестерн
Продолжительность: 02:07:56
Перевод: Дублированный | Пифагор по заказу Netflix
Субтитры: Русские (Forced, full), английские

Режиссер: Джейн Кэмпион

rating

В ролях: Бенедикт Камбербэтч, Джесси Племонс, Кирстен Данст, Коди Смит-Макфи, Томасин Маккензи, Кит Каррадайн, Фрэнсис Конрой, Адам Бич, Питер Кэрролл, Карл Виллетц, Татум Уоррен-Нгата, Иветта Парронс, Маэсон Стоун Скуггедал, Рамонтей МакКоннелл

Описание: Братья Фил и Джордж — владельцы крупнейшего ранчо Монтаны. Несмотря на родство, братья мало похожи друг на друга. Фил отличается умом и жесткостью, а Джордж — добротой и любовью к порядку. Когда Фил узнаёт, что Джордж тайно женился на местной вдове Роуз, он решает использовать её сына Питера, чтобы уничтожить их брак.

Качество: UHD BDRemux 2160p
Формат: MKV

Видео: 3840x2160 at 23.976 fps, MPEG-H HEVC HDR ~ 72900 kbps avg
Аудио #01: 48 kHz, AC3, 5.1, 640 Kbps | Дублированный | Netflix | RUS |
Аудио #02: 48 kHz, E-AC3, 5.1, 640 Kbps | Дублированный | Netflix | RUS |
Аудио #03: 48 kHz, TrueHD, 7.1, 3321 Kbps | Оригинал | ENG |
Аудио #04: 48 kHz, AC3, 5.1, 640 Kbps | Оригинал | ENG |
скриншот  скриншот  скриншот  скриншот  скриншот  скриншот  

General
Unique ID : 323824310127864346965625257281432942155 (0xF39E4B26B8786F1F66150014213D764B)
Complete name : \192.168.1.198shareThe.Power.of.the.Dog.2021.BDREMUX.2160p.HDR.seleZen.mkv
Format : Matroska
Format version : Version 4
File size : 69.9 GiB
Duration : 2 h 9 min
Overall bit rate mode : Variable
Overall bit rate : 77.4 Mb/s
Movie name : The Power of the Dog 2021 from seleZen
Encoded date : UTC 2022-11-05 07:07:14
Writing application : mkvmerge v59.0.0 ('Shining Star') 64-bit
Writing library : libebml v1.4.2 + libmatroska v1.6.4

Video
ID : 1
Format : HEVC
Format/Info : High Efficiency Video Coding
Format profile : Main 10@L5.1@High
HDR format : SMPTE ST 2086, HDR10 compatible
Codec ID : V_MPEGH/ISO/HEVC
Duration : 2 h 7 min
Bit rate : 72.9 Mb/s
Width : 3 840 pixels
Height : 2 160 pixels
Display aspect ratio : 16:9
Frame rate mode : Constant
Frame rate : 23.976 (24000/1001) FPS
Color space : YUV
Chroma subsampling : 4:2:0 (Type 2)
Bit depth : 10 bits
Bits/(Pixel*Frame) : 0.367
Stream size : 65.2 GiB (93%)
Language : English
Default : Yes
Forced : No
Color range : Limited
Color primaries : BT.2020
Transfer characteristics : PQ
Matrix coefficients : BT.2020 non-constant
Mastering display color pri: Display P3
Mastering display luminance: min: 0.0001 cd/m2, max: 1000 cd/m2
Maximum Content Light Level: 1000 cd/m2
Maximum Frame-Average Light: 244 cd/m2

Audio #1
ID : 2
Format : AC-3
Format/Info : Audio Coding 3
Commercial name : Dolby Digital
Codec ID : A_AC3
Duration : 2 h 9 min
Bit rate mode : Constant
Bit rate : 640 kb/s
Channel(s) : 6 channels
Channel layout : L R C LFE Ls Rs
Sampling rate : 48.0 kHz
Frame rate : 31.250 FPS (1536 SPF)
Compression mode : Lossy
Stream size : 592 MiB (1%)
Title : Дубляж
Language : Russian
Service kind : Complete Main
Default : Yes
Forced : Yes

Audio #2
ID : 3
Format : E-AC-3
Format/Info : Enhanced AC-3
Commercial name : Dolby Digital Plus
Codec ID : A_EAC3
Duration : 2 h 9 min
Bit rate mode : Constant
Bit rate : 640 kb/s
Channel(s) : 6 channels
Channel layout : L R C LFE Ls Rs
Sampling rate : 48.0 kHz
Frame rate : 31.250 FPS (1536 SPF)
Compression mode : Lossy
Stream size : 592 MiB (1%)
Title : Дубляж
Language : Russian
Service kind : Complete Main
Default : No
Forced : No

Audio #3
ID : 4
Format : MLP FBA 16-ch
Format/Info : Meridian Lossless Packing FBA with 16-channel presentation
Commercial name : Dolby TrueHD with Dolby Atmos
Codec ID : A_TRUEHD
Duration : 2 h 7 min
Bit rate mode : Variable
Bit rate : 3 321 kb/s
Maximum bit rate : 5 859 kb/s
Channel(s) : 8 channels
Channel layout : L R C LFE Ls Rs Lb Rb
Sampling rate : 48.0 kHz
Frame rate : 1 200.000 FPS (40 SPF)
Compression mode : Lossless
Stream size : 2.97 GiB (4%)
Title : Original
Language : English
Default : No
Forced : No
Number of dynamic objects : 11
Bed channel count : 1 channel
Bed channel configuration : LFE

Audio #4
ID : 5
Format : AC-3
Format/Info : Audio Coding 3
Commercial name : Dolby Digital
Codec ID : A_AC3
Duration : 2 h 7 min
Bit rate mode : Constant
Bit rate : 640 kb/s
Channel(s) : 6 channels
Channel layout : L R C LFE Ls Rs
Sampling rate : 48.0 kHz
Frame rate : 31.250 FPS (1536 SPF)
Compression mode : Lossy
Stream size : 586 MiB (1%)
Language : English
Service kind : Complete Main
Default : No
Forced : No

Text #1
ID : 6
Format : UTF-8
Codec ID : S_TEXT/UTF8
Codec ID/Info : UTF-8 Plain Text
Duration : 2 h 6 min
Bit rate : 1 b/s
Frame rate : 0.004 FPS
Count of elements : 29
Stream size : 1.45 KiB (0%)
Title : Forced
Language : Russian
Default : Yes
Forced : Yes

Text #2
ID : 7
Format : UTF-8
Codec ID : S_TEXT/UTF8
Codec ID/Info : UTF-8 Plain Text
Duration : 2 h 6 min
Bit rate : 41 b/s
Frame rate : 0.115 FPS
Count of elements : 871
Stream size : 38.6 KiB (0%)
Title : Full
Language : Russian
Default : No
Forced : No

Text #3
ID : 8
Format : UTF-8
Codec ID : S_TEXT/UTF8
Codec ID/Info : UTF-8 Plain Text
Duration : 2 h 4 min
Bit rate : 37 b/s
Frame rate : 0.167 FPS
Count of elements : 1246
Stream size : 34.4 KiB (0%)
Title : SDH
Language : English
Default : No
Forced : No

Menu
00:00:00.000 : Глава 01
00:10:56.739 : Глава 02
00:22:41.777 : Глава 03
00:33:24.377 : Глава 04
00:38:19.172 : Глава 05
00:43:06.167 : Глава 06
00:44:20.116 : Глава 07
00:52:42.618 : Глава 08
01:01:07.038 : Глава 09
01:11:22.904 : Глава 10
01:17:16.757 : Глава 11
01:25:17.279 : Глава 12
01:31:20.767 : Глава 13
01:38:27.068 : Глава 14
01:47:15.429 : Глава 15
01:51:41.904 : Глава 16
02:02:22.335 : Глава 17




Скачать Влacть пса через торрент https://i120.fastpic.org/big/2022/1105/5b/defd0d89bf42400751af8c7a55b8945b.jpg Скачать, смотреть онлайн Влacть пса бесплантно в хорошем качестве Описание: Братья Фил и Джордж — владельцы крупнейшего ранчо Монтаны. Несмотря на родство, братья мало похожи друг на друга. Фил отличается ... 8.2 10 5
Торрент: Зарегистрирован [2022-11-06 17:38] · скачан: 19 раз
Статус: √ проверено
Размер: 69.93 GB
Как cкачать? Как скачать Влacть пса через торрент | UTorrent

28-11-2019 20:33  


Отключить вcю реклaмy на сайте, в т.ч. и в плеере онлайн просмотра!

    Дорогой пользователь! Огромная просьба, поблагодарите релизера, оцените раздачу и оставьте свои комментарий, если Вы скачали Влacть пса через торрент бесплатно!!
    Комментировать посты могут только пользователи прошедшие не сложную регистрацию
    Показать сообщения:    


    Влacть пса через торрент
    Скачать бесплатно Влacть пса
    Влacть пса скачать торрент
    Влacть пса смотреть онлайн
    Cкачать фильм Влacть пса бесплатно
    Влacть пса скачать торрент в хорошем качестве
    Влacть пса смотреть онлайн бесплатно в хорошем качестве
    Вы не можете начинать темы
    Вы не можете отвечать на сообщения
    Вы не можете редактировать свои сообщения
    Вы не можете удалять свои сообщения
    Вы не можете голосовать в опросах
    Вы не можете прикреплять файлы к сообщениям
    Вы можете скачивать файлы
    Влacть пса / The Power of the Dog [2021, Драма, мелодрама, вестерн, UHD BDRemux 2160p] Дубляж [Пифагор / Netflix] смотреть онлайн, скачать торрент picoco.icu