Достать ножи: Стеклянная луковица

MVO

Добыча

Дубляж

Уэнсдэй

1 сезон

Тор

Дубляж

13 клиническая

1 сезон

Жестокая ночь

MVO

Одни из нас

1 сезон

Deluxe

pack

Рекомендуем

30

Пиратка

ВАЖНО

ВАЖНО

Ghostwire

Пиратка

jed

RePack

nioh2

RePack

RDR2

RePack

NEED FOR SPEED™ PAYBACK

RePack

скачать торрент

Кинопоиск HD

Острые козырьки 6 сезон

6 сезон

FAR CRY 6

RePack

скачать торрент

Лицензия

скачать торрент

MVO

1

1 сезон

скачать торрент

1 сезон

скачать торрент

Лицензия

  

Исповедь / Mass (Фрэн Кранц) [2021, Драма, BDRip 1080p] MVO [Кинопоиск HD]

Исповедь через торрент piratbit.org

Раздают: 1 [ 0 KB/s ]
Размер: 12.09 GB | Добавлен: 2 мес. 4 д. назад | Торрент скачан:57 раз
Смотреть онлайн | Скачать | Поддержите нас   

26-11-2022 09:32 Исповедь Скачать торрент  

Исповедь
Mass

Год выпуска: 2021
Страна: США
Студия: 5B Productions, 7 Eccles Street, Circa 1888
Жанр: Драма
Продолжительность: 01:51:21
Перевод: Профессиональный (многоголосый) | Кинопоиск HD
Субтитры: Русские (Full), английские

Режиссер: Фрэн Кранц

rating

В ролях: Рид Бирни, Энн Дауд, Джейсон Айзекс, Марта Плимптон, Брида Вул, Кэген Олбрайт, Мишель Н. Картер, Майкл Уайт, Кэмпбелл Спур

Описание: Сын Ричарда и Линды устроил кровавую трагедию, сломавшую жизнь Джею и Гейл. Две пары родителей сходятся в камерной обстановке, чтобы в атмосфере возрастающего напряжения, отчаяния и горя найти выход из запутанного лабиринта вопросов, на которые нет ответов. «Исповедь» — эмоциональная драма о людях, проживающих одну трагедию со стороны жертв и виновных.

Качество: BDRip 1080p
Формат: MKV

Видео: MPEG-4 AVC, 1920x952, 14.0 Mbit/s, 23.976 fps
Аудио #01: 48 kHz, AC3, 5.1, 448 Kbps | Профессиональный многоголосый | Кинопоиск HD | RUS |
Аудио #02: 48 kHz, E-AC3, 5.1, 448 Kbps | Профессиональный многоголосый | Кинопоиск HD | RUS |
Аудио #03: 48 kHz, AC3, 5.1, 640 Kbps | Оригинал | ENG |
скриншот  скриншот  скриншот  скриншот  скриншот  скриншот  

General
Unique ID : 142580941469581280711969406701560298188 (0x6B441728E11BA134584A8E1C5C1E7ACC)
Complete name : D:\Videos\Mass.2021.BDRip.1080p.seleZen.mkv
Format : Matroska
Format version : Version 4
File size : 12.1 GiB
Duration : 1 h 51 min
Overall bit rate : 15.5 Mb/s
Movie name : Mass 2021 from seleZen
Encoded date : UTC 2022-11-26 09:00:16
Writing application : mkvmerge v59.0.0 ('Shining Star') 64-bit
Writing library : libebml v1.4.2 + libmatroska v1.6.4

Video
ID : 1
Format : AVC
Format/Info : Advanced Video Codec
Format profile : High@L4.1
Format settings : CABAC / 4 Ref Frames
Format settings, CABAC : Yes
Format settings, Reference : 4 frames
Codec ID : V_MPEG4/ISO/AVC
Duration : 1 h 51 min
Bit rate : 14.0 Mb/s
Width : 1 920 pixels
Height : 952 pixels
Display aspect ratio : 2.017
Frame rate mode : Constant
Frame rate : 23.976 (24000/1001) FPS
Color space : YUV
Chroma subsampling : 4:2:0
Bit depth : 8 bits
Scan type : Progressive
Bits/(Pixel*Frame) : 0.320
Stream size : 10.9 GiB (90%)
Title : playHD
Writing library : x264 core 146 r2538 121396c
Encoding settings : cabac=1 / ref=4 / deblock=1:-3:-3 / analyse=0x3:0x133 / me=umh / subme=10 / psy=1 / psy_rd=1.00:0.00 / mixed_ref=1 / me_range=32 / chroma_me=1 / trellis=2 / 8x8dct=1 / cqm=0 / deadzone=21,11 / fast_pskip=0 / chroma_qp_offset=-2 / threads=36 / lookahead_threads=6 / sliced_threads=0 / nr=0 / decimate=0 / interlaced=0 / bluray_compat=0 / constrained_intra=0 / bframes=9 / b_pyramid=2 / b_adapt=2 / b_bias=0 / direct=3 / weightb=1 / open_gop=0 / weightp=2 / keyint=250 / keyint_min=23 / scenecut=40 / intra_refresh=0 / rc=crf / mbtree=0 / crf=16.0 / qcomp=0.60 / qpmin=0 / qpmax=69 / qpstep=4 / ip_ratio=1.30 / pb_ratio=1.20 / aq=3:0.85 / zones=0,414,crf=15.0
Language : English
Default : Yes
Forced : No

Audio #1
ID : 2
Format : AC-3
Format/Info : Audio Coding 3
Commercial name : Dolby Digital
Codec ID : A_AC3
Duration : 1 h 51 min
Bit rate mode : Constant
Bit rate : 448 kb/s
Channel(s) : 6 channels
Channel layout : L R C LFE Ls Rs
Sampling rate : 48.0 kHz
Frame rate : 31.250 FPS (1536 SPF)
Compression mode : Lossy
Stream size : 357 MiB (3%)
Title : MVO [Kinopoisk HD]
Language : Russian
Service kind : Complete Main
Default : Yes
Forced : Yes

Audio #2
ID : 3
Format : E-AC-3
Format/Info : Enhanced AC-3
Commercial name : Dolby Digital Plus
Codec ID : A_EAC3
Duration : 1 h 51 min
Bit rate mode : Constant
Bit rate : 448 kb/s
Channel(s) : 6 channels
Channel layout : L R C LFE Ls Rs
Sampling rate : 48.0 kHz
Frame rate : 31.250 FPS (1536 SPF)
Compression mode : Lossy
Stream size : 357 MiB (3%)
Title : MVO [Kinopoisk HD]
Language : Russian
Service kind : Complete Main
Default : No
Forced : No

Audio #3
ID : 4
Format : AC-3
Format/Info : Audio Coding 3
Commercial name : Dolby Digital
Codec ID : A_AC3
Duration : 1 h 51 min
Bit rate mode : Constant
Bit rate : 640 kb/s
Channel(s) : 6 channels
Channel layout : L R C LFE Ls Rs
Sampling rate : 48.0 kHz
Frame rate : 31.250 FPS (1536 SPF)
Compression mode : Lossy
Stream size : 510 MiB (4%)
Title : Original
Language : English
Service kind : Complete Main
Default : No
Forced : No

Text #1
ID : 5
Format : UTF-8
Codec ID : S_TEXT/UTF8
Codec ID/Info : UTF-8 Plain Text
Duration : 1 h 44 min
Bit rate : 109 b/s
Frame rate : 0.300 FPS
Count of elements : 1888
Stream size : 83.8 KiB (0%)
Title : Full
Language : Russian
Default : No
Forced : No

Text #2
ID : 6
Format : UTF-8
Codec ID : S_TEXT/UTF8
Codec ID/Info : UTF-8 Plain Text
Duration : 1 h 44 min
Bit rate : 71 b/s
Frame rate : 0.309 FPS
Count of elements : 1936
Stream size : 54.6 KiB (0%)
Title : Full
Language : English
Default : No
Forced : No

Text #3
ID : 7
Format : UTF-8
Codec ID : S_TEXT/UTF8
Codec ID/Info : UTF-8 Plain Text
Duration : 1 h 46 min
Bit rate : 74 b/s
Frame rate : 0.318 FPS
Count of elements : 2028
Stream size : 58.4 KiB (0%)
Title : SDH
Language : English
Default : No
Forced : No

Menu
00:00:00.000 : :Chapter 01
00:14:39.170 : :Chapter 02
00:29:32.688 : :Chapter 03
00:47:00.026 : :Chapter 04
01:01:11.376 : :Chapter 05
01:15:25.688 : :Chapter 06
01:30:59.412 : :Chapter 07
01:47:44.041 : :Chapter 08




Скачать Исповедь через торрент https://i120.fastpic.org/big/2022/1126/cb/da66908971f4761e64e07be04175b4cb.jpg Скачать, смотреть онлайн Исповедь бесплантно в хорошем качестве Описание: Сын Ричарда и Линды устроил кровавую трагедию, сломавшую жизнь Джею и Гейл. Две пары родителей сходятся в камерной обстановке, ... 9.5 10 4
Торрент: Зарегистрирован [2022-11-26 09:32] · скачан: 57 раз
Статус: √ проверено
Размер: 12.09 GB
Как cкачать? Как скачать Исповедь через торрент | UTorrent

% Раздел Тема Автор DL S | L
Фильмы [HD 720p, 1080p] (Хороший звук DUB, MVO) [ 4.9 GB ] Исповедь / Mass | Кинопоиск HD | 720p bober100 Скачать
2 | 0
Фильмы (Blu-ray, BD-Remux, HDDVD) [ 19.22 GB ] Исповедь / Mass | Кинопоиск HD | BD Remux 1080p bober100 Скачать
1 | 0

28-11-2019 20:33  


Отключить вcю реклaмy на сайте, в т.ч. и в плеере онлайн просмотра!

    Дорогой пользователь! Огромная просьба, поблагодарите релизера, оцените раздачу и оставьте свои комментарий, если Вы скачали Исповедь через торрент бесплатно!!
    Комментировать посты могут только пользователи прошедшие не сложную регистрацию
    Показать сообщения:    


    Исповедь через торрент
    Скачать бесплатно Исповедь
    Исповедь скачать торрент
    Исповедь смотреть онлайн
    Cкачать фильм Исповедь бесплатно
    Исповедь скачать торрент в хорошем качестве
    Исповедь смотреть онлайн бесплатно в хорошем качестве
    Вы не можете начинать темы
    Вы не можете отвечать на сообщения
    Вы не можете редактировать свои сообщения
    Вы не можете удалять свои сообщения
    Вы не можете голосовать в опросах
    Вы не можете прикреплять файлы к сообщениям
    Вы можете скачивать файлы
    Исповедь / Mass [2021, Драма, BDRip 1080p] MVO [Кинопоиск HD] смотреть онлайн, скачать торрент picoco.icu