Достать ножи: Стеклянная луковица

MVO

Добыча

Дубляж

Уэнсдэй

1 сезон

Тор

Дубляж

13 клиническая

1 сезон

Жестокая ночь

MVO

Одни из нас

1 сезон

Deluxe

pack

Рекомендуем

30

Пиратка

ВАЖНО

ВАЖНО

Ghostwire

Пиратка

jed

RePack

nioh2

RePack

RDR2

RePack

NEED FOR SPEED™ PAYBACK

RePack

скачать торрент

Кинопоиск HD

Острые козырьки 6 сезон

6 сезон

FAR CRY 6

RePack

скачать торрент

Лицензия

скачать торрент

MVO

1

1 сезон

скачать торрент

1 сезон

скачать торрент

Лицензия

  

Чёрная пятница / Black Friday (Кейси Тебо) [2021, Ужасы, комедия, BDRip 720p] MVO [Кипарис]

Чёрная пятница через торрент piratbit.org

Раздают: 1 [ 0 KB/s ]
Размер: 5.73 GB | Добавлен: 2 мес. 4 д. назад | Торрент скачан:126 раз
Смотреть онлайн | Скачать | Поддержите нас   

26-11-2022 12:49 Чёрная пятница Скачать торрент  

Чёрная пятница
Black Friday

Год выпуска: 2021
Страна: США
Выпущено: MFW Productions, The Warner Davis Company
Жанр: Ужасы, комедия
Продолжительность: 01:24:23
Перевод: Профессиональный (многоголосый) | Кипарис
Субтитры: Русские (Full), английские (Full, SDH)

Режиссер: Кейси Тебо

rating

В ролях: Девон Сава, Ивана Бакеро, Райан Ли, Стивен Пек, Майкл Джей Уайт, Брюс Кэмпбелл, Луи Куртцман, Селеста Олива, Эллен Колтон, Пег Хольцмер, Марк Стегер, Андрия Блэкмэн, Кристофер Микаэл, Лонни Фармер, Бейтс Уайлдер, Синди Лентол

Описание: Пока магазин игрушек готовился к наплыву покупателей на распродажу в Чёрную пятницу, на складе приземлился инопланетный организм и начал распространять заразу. И чего работники торговли никак не ожидали, так это того, что им придется противостоять не ошалевшим от скидок гражданам, а толпам кровожадных мутантов.

Качество: BDRip 720p
Формат: MKV

Видео: MPEG-4 AVC, 8690 Kb/s, 1280x534, 24.000 fps
Аудио #01: 48 kHz, AC3, 5.1, 384 Kbps | Профессиональный многоголосый | Кипарис | RUS |
Аудио #02: 48 kHz, AC3, 5.1, 640 Kbps | Оригинал | ENG |
скриншот  скриншот  скриншот  скриншот  

Complete name: Chernaya.pyatnitsa.2021.BDRip.720p.ELEKTRI4KA.UNIONGANG.mkv
Format: Matroska
Format version: Version 4
File size: 5.73 GiB
Duration: 1 h 24 min
Overall bit rate: 9 714 kb/s
Movie name: Chernaya.pyatnitsa.2021.BDRip.720p.ELEKTRI4KA.UNIONGANG.
Encoded date: UTC 2022-11-26 10:24:39
Writing application: mkvmerge v8.3.0 ('Over the Horizon') 64bit
Writing library: libebml v1.3.1 + libmatroska v1.4.2

Video
ID: 1
Format: AVC
Format/Info: Advanced Video Codec
Format profile: High@L4.1
Format settings: CABAC / 12 Ref Frames
Format settings, CABAC: Yes
Format settings, Reference frames: 12 frames
Codec ID: V_MPEG4/ISO/AVC
Duration: 1 h 24 min
Bit rate: 8 690 kb/s
Width: 1 280 pixels
Height: 534 pixels
Display aspect ratio: 2.40:1
Frame rate mode: Constant
Frame rate: 24.000 FPS
Color space: YUV
Chroma subsampling: 4:2:0
Bit depth: 8 bits
Scan type: Progressive
Bits/(Pixel*Frame): 0.530
Stream size: 5.12 GiB (89%)
Writing library: x264 core 157 r2958 57baac4
Encoding settings: cabac=1 / ref=12 / deblock=1:-3:-3 / analyse=0x3:0x133 / me=umh / subme=10 / psy=1 / psy_rd=1.00:0.00 / mixed_ref=1 / me_range=32 / chroma_me=1 / trellis=2 / 8x8dct=1 / cqm=0 / deadzone=21, 11 / fast_pskip=0 / chroma_qp_offset=-2 / threads=49 / lookahead_threads=4 / sliced_threads=0 / nr=0 / decimate=0 / interlaced=0 / bluray_compat=0 / constrained_intra=0 / bframes=8 / b_pyramid=2 / b_adapt=2 / b_bias=0 / direct=3 / weightb=1 / open_gop=0 / weightp=2 / keyint=240 / keyint_min=24 / scenecut=40 / intra_refresh=0 / rc=2pass / mbtree=0 / bitrate=8690 / ratetol=1.0 / qcomp=0.60 / qpmin=0 / qpmax=69 / qpstep=4 / cplxblur=20.0 / qblur=0.5 / ip_ratio=1.40 / pb_ratio=1.30 / aq=1:1.00
Default: Yes
Forced: No
Color range: Limited
Color primaries: BT.709
Matrix coefficients: BT.709

Audio #1
ID: 2
Format: AC-3
Format/Info: Audio Coding 3
Commercial name: Dolby Digital
Codec ID: A_AC3
Duration: 1 h 24 min
Bit rate mode: Constant
Bit rate: 384 kb/s
Channel(s): 6 channels
Channel layout: L R C LFE Ls Rs
Sampling rate: 48.0 kHz
Frame rate: 31.250 FPS (1536 SPF)
Compression mode: Lossy
Stream size: 231 MiB (4%)
Title: MVO (Kiparis)
Language: Russian
Service kind: Complete Main
Default: Yes
Forced: Yes

Audio #2
ID: 3
Format: AC-3
Format/Info: Audio Coding 3
Commercial name: Dolby Digital
Codec ID: A_AC3
Duration: 1 h 24 min
Bit rate mode: Constant
Bit rate: 640 kb/s
Channel(s): 6 channels
Channel layout: L R C LFE Ls Rs
Sampling rate: 48.0 kHz
Frame rate: 31.250 FPS (1536 SPF)
Compression mode: Lossy
Stream size: 386 MiB (7%)
Title: Original
Language: English
Service kind: Complete Main
Default: No
Forced: No

Text #1
ID: 4
Format: UTF-8
Codec ID: S_TEXT/UTF8
Codec ID/Info: UTF-8 Plain Text
Duration: 1 h 18 min
Bit rate: 86 b/s
Frame rate: 0.233 FPS
Count of elements: 1104
Stream size: 50.0 KiB (0%)
Title: Full
Language: Russian
Default: No
Forced: No

Text #2
ID: 5
Format: UTF-8
Codec ID: S_TEXT/UTF8
Codec ID/Info: UTF-8 Plain Text
Duration: 1 h 24 min
Bit rate: 58 b/s
Frame rate: 0.272 FPS
Count of elements: 1369
Stream size: 35.9 KiB (0%)
Title: English
Language: English
Default: No
Forced: No

Text #3
ID: 6
Format: UTF-8
Codec ID: S_TEXT/UTF8
Codec ID/Info: UTF-8 Plain Text
Duration: 1 h 24 min
Bit rate: 67 b/s
Frame rate: 0.337 FPS
Count of elements: 1700
Stream size: 41.3 KiB (0%)
Title: English(SDH)
Language: English
Default: No
Forced: No

Menu
00:00:00.000: en:Chapter 01
00:06:52.875: en:Chapter 02
00:13:25.542: en:Chapter 03
00:20:30.417: en:Chapter 04
00:29:45.292: en:Chapter 05
00:36:24.917: en:Chapter 06
00:43:16.750: en:Chapter 07
00:50:53.292: en:Chapter 08
00:57:45.958: en:Chapter 09
01:04:58.500: en:Chapter 10
01:10:48.833: en:Chapter 11
01:17:49.542: en:Chapter 12




Скачать Чёрная пятница через торрент https://i120.fastpic.org/big/2022/1126/80/4d37dad6dee0028485d94670c6e1dd80.jpg Скачать, смотреть онлайн Чёрная пятница бесплантно в хорошем качестве Описание: Пока магазин игрушек готовился к наплыву покупателей на распродажу в Чёрную пятницу, на складе приземлился инопланетный организм ... 10 10 5
Торрент: Зарегистрирован [2022-11-26 12:49] · скачан: 126 раз
Статус: √ проверено
Размер: 5.73 GB
Как cкачать? Как скачать Чёрная пятница через торрент | UTorrent

% Раздел Тема Автор DL S | L
Фильмы 2021 [DVDrip, WEB-DLRip, HDrip] (DUB, MVO) [ 717 MB ] Чёрная пятница / Black Friday | Кипарис" | HDRip MVO закадровый "Кипарис" coc900 Скачать
2 | 0
Фильмы [HD 720p, 1080p] (Хороший звук DUB, MVO) [ 12.31 GB ] Чёрная пятница / Black Friday | Кипарис | 1080p bober100 Скачать
1 | 0

28-11-2019 20:33  


Отключить вcю реклaмy на сайте, в т.ч. и в плеере онлайн просмотра!

    Дорогой пользователь! Огромная просьба, поблагодарите релизера, оцените раздачу и оставьте свои комментарий, если Вы скачали Чёрная пятница через торрент бесплатно!!
    Комментировать посты могут только пользователи прошедшие не сложную регистрацию
    Показать сообщения:    


    Чёрная пятница через торрент
    Скачать бесплатно Чёрная пятница
    Чёрная пятница скачать торрент
    Чёрная пятница смотреть онлайн
    Cкачать фильм Чёрная пятница бесплатно
    Чёрная пятница скачать торрент в хорошем качестве
    Чёрная пятница смотреть онлайн бесплатно в хорошем качестве
    Вы не можете начинать темы
    Вы не можете отвечать на сообщения
    Вы не можете редактировать свои сообщения
    Вы не можете удалять свои сообщения
    Вы не можете голосовать в опросах
    Вы не можете прикреплять файлы к сообщениям
    Вы можете скачивать файлы
    Чёрная пятница / Black Friday [2021, Ужасы, комедия, BDRip 720p] MVO [Кипарис] смотреть онлайн, скачать торрент picoco.icu