Достать ножи: Стеклянная луковица

MVO

Добыча

Дубляж

Уэнсдэй

1 сезон

Тор

Дубляж

13 клиническая

1 сезон

Жестокая ночь

MVO

Одни из нас

1 сезон

Deluxe

pack

Рекомендуем

30

Пиратка

ВАЖНО

ВАЖНО

Ghostwire

Пиратка

jed

RePack

nioh2

RePack

RDR2

RePack

NEED FOR SPEED™ PAYBACK

RePack

скачать торрент

Кинопоиск HD

Острые козырьки 6 сезон

6 сезон

FAR CRY 6

RePack

скачать торрент

Лицензия

скачать торрент

MVO

1

1 сезон

скачать торрент

1 сезон

скачать торрент

Лицензия

  

Уэнсдэй / Wednesday / Сезон: 1 / Серии: 1-8 из 8 (Тим Бёртон, Джеймс Маршалл, Гянджа Монтейро) [2022, Фэнтези, комедия, криминал, детектив, семейный, WEB-DL 1080p] 2xMVO [LostFilm, HDRezka]

Уэнсдэй через торрент piratbit.org

Раздают: 10 [ 262 KB/s ] Качают: 1 [ 0 KB/s ]
Размер: 19.88 GB | Добавлен: 1 мес. 11 д. назад | Торрент скачан:257 раз
Смотреть онлайн | Скачать | Поддержите нас   

27-11-2022 05:56 Уэнсдэй Скачать торрент  

Уэнсдэй | Wednesday
«---»
Год выпуска: 2022
Страна: США
Студия: Glickmania, MGM Television, MGM/UA Distribution Company, Netflix, Tee and Charles Addams Foundation
Премьера (мир): 31 октября 2022
Жанр: Фэнтези, комедия, криминал, детектив, семейный
Продолжительность: ~ 00:59:00 серия
Перевод:
Профессиональный (многоголосый) | LostFilm
Профессиональный (многоголосый) | HDRezka
Субтитры: Русские (Forced-|HDRezka|, Full- |Netflix|), английские (Full, SDH)

Режиссер: Тим Бёртон, Джеймс Маршалл, Гянджа Монтейро

rating

В ролях: Дженна Ортега (Jenna Ortega), Гвендолин Кристи (Gwendoline Christie), Рики Линдхоум (Riki Lindhome), Джейми МакШейн (Jamie McShane), Хантер Дуэн (Hunter Doohan), Перси Хайнс Уайт (Percy Hynes White), Эмма Майерс (Emma Myers), Джой Сандай (Joy Sunday), Джорджи Фармер (Georgie Farmer), Наоми Танкел (Naomi J. Ogawa), Кристина Риччи (Christina Ricci), Джонна Диас-Уотсон (Johnna Dias-Watson)

Описание: Обычная общеобразовательная школа — не лучшее место для таких странных детей, как зловещая Уэнсдэй (Дженна Ортега) и ее брат Пагсли (Айзек Ордонез), часто выступающий подопытным в ее изощренных пытках. Однажды Уэнсдэй решает отомстить обидчикам братца (ведь только она может издеваться над ним) весьма экзотичным образом — выпустив пираний в бассейн. Ученицу сразу исключают, а ее родителям, женщине-вамп Мортише (Кэтрин Зета-Джонс) и ее колоритному мужу Гомесу (Луис Гусман) ничего другого не остается, как отправить бунтующую дочь в академию «Нэвермор», где они познакомились и провели бурную юность. В стенах этого готического замка Уэнсдэй должна почувствовать себя в своей тарелке, ведь тут учатся такие же чудики, как она сама, — от вампиров до оборотней и сирен. Тем не менее и здесь непримиримая и колкая Уэнсдэй не может найти своего места. Впрочем, заботят девочку не безуспешные остроты новых одноклассников, а серия жестоких убийств, происходящая в соседнем «нормальном» городке Джерико. Без особого удовольствия Аддамс объединяется с до зубовного скрежета доброжелательной соседкой Инид (Эмма Майерс) и еще парочкой местных изгоев, чтобы покончить с преступлениями и заодно раскрыть ужасную тайну собственной семьи. Правда, если подросткам самим удастся выжить после рискованных ночных похождений или утомительных дневных нравоучений приставучих взрослых…

Качество: WEB-DL 1080p
Формат: MKV

Видео: AVC, 1920 x 1080 (1.778), 23.976 fps, ~5 491 kbps
Аудио Rus: AC-3, 48 kHz, 2 ch, 384 kbps |LostFilm|
Аудио Rus: AC-3, 48 kHz, 6 ch, 448 kbps |HDRezka|
Аудио Eng: E-AC-3 JOC, 48 kHz, 6 ch, 768 kbps |Original|
скриншот  скриншот  скриншот  скриншот  

Общее
Уникальный идентификатор : 111006084452467514226478913993333948298 (0x5382FE844269333A5D080FAF692A3F8A)
Полное имя : E:\_Сериалы\_Сериалы\Уэнсдэй\Wednesday.S01.WEBDL.1080p.Rus.Eng\Wednesday.S01E01.WEBDL.1080p.RGzsRutracker.mkv
Формат : Matroska
Версия формата : Version 4
Размер файла : 2,95 Гбайт
Продолжительность : 59 м. 28 с.
Режим общего битрейта : Переменный
Общий поток : 7 094 Кбит/сек
Дата кодирования : UTC 2022-11-27 05:36:26
Программа кодирования : mkvmerge v72.0.0 ('Minuano (Six-eight)') 64-bit
Библиотека кодирования : libebml v1.4.4 + libmatroska v1.7.1

Видео
Идентификатор : 1
Формат : AVC
Формат/Информация : Advanced Video Codec
Профиль формата : Main@L4
Настройки формата : CABAC / 3 Ref Frames
Параметр CABAC формата : Да
Параметр RefFrames формата : 3 кадра
Идентификатор кодека : V_MPEG4/ISO/AVC
Продолжительность : 59 м. 28 с.
Вид битрейта : Переменный
Битрейт : 5 491 Кбит/сек
Номинальный битрейт : 5 800 Кбит/сек
Максимальный битрейт : 8 700 Кбит/сек
Ширина : 1 920 пикселей
Высота : 1 080 пикселей
Соотношение сторон : 16:9
Режим частоты кадров : Постоянный
Частота кадров : 23,976 (24000/1001) кадра/сек
Цветовое пространство : YUV
Субдискретизация насыщенности : 4:2:0
Битовая глубина : 8 бит
Тип развёртки : Прогрессивная
Бит/(Пиксели*Кадры) : 0.110
Размер потока : 2,28 Гбайт (77%)
Библиотека кодирования : x264 core 148 r2727 7d026e8
Настройки программы : cabac=1 / ref=3 / deblock=1:0:0 / analyse=0x1:0x111 / me=umh / subme=10 / psy=1 / psy_rd=1.00:0.00 / mixed_ref=1 / me_range=24 / chroma_me=1 / trellis=2 / 8x8dct=0 / cqm=0 / deadzone=21,11 / fast_pskip=1 / chroma_qp_offset=-2 / threads=8 / lookahead_threads=1 / sliced_threads=0 / nr=0 / decimate=1 / interlaced=0 / bluray_compat=0 / stitchable=1 / constrained_intra=0 / bframes=2 / b_pyramid=0 / b_adapt=2 / b_bias=0 / direct=3 / weightb=1 / open_gop=0 / weightp=2 / keyint=250 / keyint_min=23 / scenecut=0 / intra_refresh=0 / rc_lookahead=48 / rc=2pass / mbtree=1 / bitrate=5800 / ratetol=1.0 / qcomp=0.50 / qpmin=6 / qpmax=51 / qpstep=4 / cplxblur=20.0 / qblur=0.5 / vbv_maxrate=8700 / vbv_bufsize=11600 / nal_hrd=vbr / filler=0 / ip_ratio=1.40 / aq=1:1.00
Язык : English
Default : Да
Forced : Нет

Аудио #1
Идентификатор : 2
Формат : AC-3
Формат/Информация : Audio Coding 3
Коммерческое название : Dolby Digital
Идентификатор кодека : A_AC3
Продолжительность : 59 м. 28 с.
Вид битрейта : Постоянный
Битрейт : 384 Кбит/сек
Каналы : 2 канала
Channel layout : L R
Частота : 48,0 КГц
Частота кадров : 31,250 кадров/сек (1536 SPF)
Метод сжатия : С потерями
Размер потока : 163 Мбайт (5%)
Заголовок : LF
Язык : Russian
Service kind : Complete Main
Default : Да
Forced : Нет

Аудио #2
Идентификатор : 3
Формат : AC-3
Формат/Информация : Audio Coding 3
Коммерческое название : Dolby Digital
Идентификатор кодека : A_AC3
Продолжительность : 59 м. 28 с.
Вид битрейта : Постоянный
Битрейт : 448 Кбит/сек
Каналы : 6 каналов
Channel layout : L R C LFE Ls Rs
Частота : 48,0 КГц
Частота кадров : 31,250 кадров/сек (1536 SPF)
Метод сжатия : С потерями
Размер потока : 191 Мбайт (6%)
Заголовок : HDr
Язык : Russian
Service kind : Complete Main
Default : Нет
Forced : Нет

Аудио #3
Идентификатор : 4
Формат : E-AC-3 JOC
Формат/Информация : Enhanced AC-3 with Joint Object Coding
Коммерческое название : Dolby Digital Plus with Dolby Atmos
Идентификатор кодека : A_EAC3
Продолжительность : 59 м. 28 с.
Вид битрейта : Постоянный
Битрейт : 768 Кбит/сек
Каналы : 6 каналов
Channel layout : L R C LFE Ls Rs
Частота : 48,0 КГц
Частота кадров : 31,250 кадров/сек (1536 SPF)
Метод сжатия : С потерями
Размер потока : 327 Мбайт (11%)
Заголовок : Eng
Язык : English
Service kind : Complete Main
Default : Нет
Forced : Нет
Complexity index : 16
Number of dynamic objects : 15
Bed channel count : 1 канал
Bed channel configuration : LFE

Текст #1
Идентификатор : 5
Формат : UTF-8
Идентификатор кодека : S_TEXT/UTF8
Идентификатор кодека/Информация : UTF-8 Plain Text
Продолжительность : 54 м. 52 с.
Битрейт : 3 бит/сек
Частота кадров : 0,010 кадр/сек
Count of elements : 32
Размер потока : 1,25 Кбайт (0%)
Заголовок : Forc
Язык : Russian
Default : Да
Forced : Нет

Текст #2
Идентификатор : 6
Формат : UTF-8
Идентификатор кодека : S_TEXT/UTF8
Идентификатор кодека/Информация : UTF-8 Plain Text
Продолжительность : 56 м. 59 с.
Битрейт : 100 бит/сек
Частота кадров : 0,204 кадр/сек
Count of elements : 698
Размер потока : 42,1 Кбайт (0%)
Заголовок : Rus
Язык : Russian
Default : Нет
Forced : Нет

Текст #3
Идентификатор : 7
Формат : UTF-8
Идентификатор кодека : S_TEXT/UTF8
Идентификатор кодека/Информация : UTF-8 Plain Text
Продолжительность : 54 м. 45 с.
Битрейт : 64 бит/сек
Частота кадров : 0,216 кадр/сек
Count of elements : 711
Размер потока : 25,7 Кбайт (0%)
Заголовок : Eng
Язык : English
Default : Нет
Forced : Нет

Текст #4
Идентификатор : 8
Формат : UTF-8
Идентификатор кодека : S_TEXT/UTF8
Идентификатор кодека/Информация : UTF-8 Plain Text
Продолжительность : 55 м. 8 с.
Битрейт : 74 бит/сек
Частота кадров : 0,266 кадр/сек
Count of elements : 881
Размер потока : 30,2 Кбайт (0%)
Заголовок : SDH
Язык : English
Default : Нет
Forced : Нет

Меню
00:55:13.000 : en:End Credits

Когда раздача ведётся путём добавления новых серий, при каждом добавлении создётся новый торрент. Чтобы начать докачку новой серии, пользователям необходимо сделать следующее:
(1) остановить скачивание,
(2) удалить старый торрент у себя из клиента (старые серии удалять не надо),
(3) скачать новый торрент и запустить его у себя в клиенте вместо старого, при этом указать клиенту путь в старую папку, куда и должно происходить скачивание новых серий.
Ваш клиент при этом должен произвести хеширование (проверку) старой папки (если не производит сам - помогите ему сделать это), и будет докачивать только те серии, которых у вас ещё нет. Старые серии при этом не удаляются, а продолжают раздаваться!
Eсли вы уже удалили старые серии, то предотвратить повторную закачку старых серий можно, отжав галочку в соответсвующих местах при запуске нового торрента. По возможности, желательно не удалять старые серии как можно дольше, чтобы релизёр не столько продолжал раздавать старые серии, а смог сконцентрироваться на новых.




Скачать Уэнсдэй через торрент https://i1-imageban-ru.translate.goog/out/2022/11/26/306afd77c0964d9dd11ea343999698fb.png Скачать, смотреть онлайн Уэнсдэй бесплантно в хорошем качестве Описание: Обычная общеобразовательная школа — не лучшее место для таких странных детей, как зловещая Уэнсдэй (Дженна Ортега) и ее брат ... 9.1 10 23
Торрент: Зарегистрирован [2022-12-20 03:42] · скачан: 257 раз
Статус: √ проверено
Размер: 19.88 GB
Как cкачать? Как скачать Уэнсдэй через торрент | UTorrent

% Раздел Тема Автор DL S | L
Зарубежные сериалы [ 18.79 GB ] Уэнсдэй / Wednesday / Сезон: 1 / Серии: 1-8 из 8 | MVO | 1080p bober100 Скачать
31 | 4
Зарубежные сериалы [ 16.05 GB ] Уэнсдэй / Wednesday / Сезон: 1 / Серии: 1-8 из 8 | DUB | 1080p bober100 Скачать
7 | 1
Зарубежные сериалы [ 5.19 GB ] Уэнсдэй / Wednesday / Сезон: 1 / Серии: 1-8 из 8 | DUB | DLRip-AVC bober100 Скачать
17 | 3
Зарубежные сериалы [ 2.76 GB ] Уэнсдэй / Wednesday / Сезон: 1 / Серии: 1- из 8 | LostFilm | 1080p bober100 Скачать
5 | 0
Зарубежные сериалы [ 4.94 GB ] Уэнсдэй / Wednesday / Сезон: 1 / Серии: 1-8 из 8 | LostFilm | DLRip bober100 Скачать
14 | 1

28-11-2019 20:33  


Отключить вcю реклaмy на сайте, в т.ч. и в плеере онлайн просмотра!

    Дорогой пользователь! Огромная просьба, поблагодарите релизера, оцените раздачу и оставьте свои комментарий, если Вы скачали Уэнсдэй через торрент бесплатно!!
    Комментировать посты могут только пользователи прошедшие не сложную регистрацию
    Показать сообщения:    


    Уэнсдэй через торрент
    Скачать бесплатно Уэнсдэй
    Уэнсдэй скачать торрент
    Уэнсдэй смотреть онлайн
    Cкачать фильм Уэнсдэй бесплатно
    Уэнсдэй скачать торрент в хорошем качестве
    Уэнсдэй смотреть онлайн бесплатно в хорошем качестве
    Вы не можете начинать темы
    Вы не можете отвечать на сообщения
    Вы не можете редактировать свои сообщения
    Вы не можете удалять свои сообщения
    Вы не можете голосовать в опросах
    Вы не можете прикреплять файлы к сообщениям
    Вы можете скачивать файлы
    Уэнсдэй / Wednesday / Сезон: 1 / Серии: 1-8 из 8 [2022, Фэнтези, комедия, криминал, детектив, семейный, WEB-DL 1080p] 2xMVO [LostFilm, HDRezka] смотреть онлайн, скачать торрент picoco.icu