Достать ножи: Стеклянная луковица

MVO

Добыча

Дубляж

Уэнсдэй

1 сезон

Тор

Дубляж

13 клиническая

1 сезон

Жестокая ночь

MVO

Одни из нас

1 сезон

Deluxe

pack

Рекомендуем

30

Пиратка

ВАЖНО

ВАЖНО

Ghostwire

Пиратка

jed

RePack

nioh2

RePack

RDR2

RePack

NEED FOR SPEED™ PAYBACK

RePack

скачать торрент

Кинопоиск HD

Острые козырьки 6 сезон

6 сезон

FAR CRY 6

RePack

скачать торрент

Лицензия

скачать торрент

MVO

1

1 сезон

скачать торрент

1 сезон

скачать торрент

Лицензия

  

Средневековье / Jan Žižka / Mediеval (Петр Якл) [2022, Биография, история, военный, драма, WEB-DL 1080p] Дубляж [Кириллица]

Средневековье через торрент piratbit.org

Раздают: 1 [ 0 KB/s ]
Размер: 6.52 GB | Добавлен: 2 мес. 3 д. назад | Торрент скачан:338 раз
Смотреть онлайн | Скачать | Поддержите нас   

27-11-2022 07:17 Средневековье Скачать торрент  

Средневековье
Jan Žižka / Mediеval

Год выпуска: 2022
Страна: Чехия
Студия: Double Tree Entertainment, Genesy, J.B.J. Film, KORD.Media, Wog Film
Жанр: Биография, история, военный, драма
Продолжительность: 02:05:33
Перевод: Дублированный | Кириллица
Субтитры: Английские (SDH)

Режиссер: Петр Якл

rating

В ролях: Бен Фостер, Софи Лоу, Майкл Кейн, Тиль Швайгер, Роланд Мёллер, Мэттью Гуд, Уильям Моусли, Карел Роден, Вернер Даен, Винценц Кифер

Описание: Священная Римская империя погружается в кровавый хаос, пока претенденты сражаются за опустевший трон. Отважный лидер наемников по имени Ян нехотя соглашается на коварный ход в политической игре: похитить невесту влиятельного вельможи, чтобы преградить ему путь к власти. Но неожиданно Ян начинает испытывать чувства к заложнице и, чтобы освободить ее, бросает вызов целой армии, стоящей на страже порочной аристократии. Он понимает, что теперь судьба империи, как, впрочем, и его любви, — не в руках королей, а только в его руках. И в этой битве Ян пойдет до конца.

Качество: WEB-DL 1080p
Формат: MKV

Видео: 1918x798 (2.40:1), 23.976 fps, MPEG-4 AVC ~ 6670 Kbps avg, 0.182 bit/pixel
Аудио: AC3, 48 kHz, 6 ch, ~384.00 kbps avg | русский | Дубляж
Аудио: AC3, 48 kHz, 6 ch, ~384.00 kbps avg | английский |
скриншот  скриншот  скриншот  скриншот  скриншот  скриншот  

Общее
Уникальный идентификатор : 224096068890961754744742456458181145828 (0xA897553C304F3BC5AB4C26E029F4F4E4)
Полное имя : Mediеval.2022.D.1080p.WEBDL.DD.5.1.x264.MegaPeer.mkv
Формат : Matroska
Версия формата : Version 4
Размер файла : 6, 52 Гбайт
Продолжительность : 2 ч. 5 м.
Общий поток : 7 440 Кбит/сек
Название фильма : Средневековье / Jan Žižka / Mediеval (2022) от MegaPeer
Дата кодирования : UTC 2022-11-27 06:42:32
Программа кодирования : mkvmerge v15.0.0 ('Duel with the Devil') 64-bit
Библиотека кодирования : libebml v1.3.5 + libmatroska v1.4.5
Обложка : Yes
Attachments : cover.jpg

Видео
Идентификатор : 1
Формат : AVC
Формат/Информация : Advanced Video Codec
Профиль формата : High@L4
Настройки формата : CABAC / 5 Ref Frames
Параметр CABAC формата : Да
Параметр RefFrames формата : 5 кадров
Идентификатор кодека : V_MPEG4/ISO/AVC
Продолжительность : 2 ч. 5 м.
Битрейт : 6 670 Кбит/сек
Ширина : 1 918 пикселей
Высота : 798 пикселей
Соотношение сторон : 2, 40:1
Режим частоты кадров : Постоянный
Частота кадров : 23, 976 (24000/1001) кадра/сек
Цветовое пространство : YUV
Субдискретизация насыщенности : 4:2:0
Битовая глубина : 8 бит
Тип развёртки : Прогрессивная
Бит/(Пиксели*Кадры) : 0.182
Размер потока : 5, 85 Гбайт (90%)
Заголовок : KBOX
Язык : English
Default : Да
Forced : Нет
Цветовой диапазон : Limited
Основные цвета : BT.709
Характеристики трансфера : BT.709
Коэффициенты матрицы : BT.709

Аудио #1
Идентификатор : 2
Формат : AC-3
Формат/Информация : Audio Coding 3
Коммерческое название : Dolby Digital
Идентификатор кодека : A_AC3
Продолжительность : 2 ч. 5 м.
Вид битрейта : Постоянный
Битрейт : 384 Кбит/сек
Каналы : 6 каналов
Channel layout : L R C LFE Ls Rs
Частота : 48, 0 КГц
Частота кадров : 31, 250 кадров/сек (1536 SPF)
Метод сжатия : С потерями
Размер потока : 345 Мбайт (5%)
Заголовок : Дубляж | Кириллица
Язык : Russian
Service kind : Complete Main
Default : Да
Forced : Да

Аудио #2
Идентификатор : 3
Формат : AC-3
Формат/Информация : Audio Coding 3
Коммерческое название : Dolby Digital
Идентификатор кодека : A_AC3
Продолжительность : 2 ч. 5 м.
Вид битрейта : Постоянный
Битрейт : 384 Кбит/сек
Каналы : 6 каналов
Channel layout : L R C LFE Ls Rs
Частота : 48, 0 КГц
Частота кадров : 31, 250 кадров/сек (1536 SPF)
Метод сжатия : С потерями
Размер потока : 345 Мбайт (5%)
Язык : English
Service kind : Complete Main
Default : Нет
Forced : Нет

Текст
Идентификатор : 4
Формат : UTF-8
Идентификатор кодека : S_TEXT/UTF8
Идентификатор кодека/Информация : UTF-8 Plain Text
Продолжительность : 2 ч. 2 м.
Битрейт : 33 бит/сек
Count of elements : 1357
Размер потока : 30, 4 Кбайт (0%)
Заголовок : SDH
Язык : English
Default : Нет
Forced : Нет

Меню
00:00:00.000 : en:Chapter 01
00:03:16.196 : en:Chapter 02
00:17:52.864 : en:Chapter 03
00:30:56.481 : en:Chapter 04
00:45:00.158 : en:Chapter 05
00:56:12.831 : en:Chapter 06
01:11:41.843 : en:Chapter 07
01:25:37.512 : en:Chapter 08
01:38:50.430 : en:Chapter 09
01:52:26.913 : en:Chapter 10
01:58:44.541 : en:Chapter 11




Скачать Средневековье через торрент https://i120.fastpic.org/big/2022/1126/b8/8542ff2f7e202d20498d72eb578864b8.jpg Скачать, смотреть онлайн Средневековье бесплантно в хорошем качестве Описание: Священная Римская империя погружается в кровавый хаос, пока претенденты сражаются за опустевший трон. Отважный лидер наемников по ... 9.6 10 10
Торрент: Зарегистрирован [2022-11-27 07:17] · скачан: 338 раз
Статус: √ проверено
Размер: 6.52 GB
Как cкачать? Как скачать Средневековье через торрент | UTorrent

% Раздел Тема Автор DL S | L
Фильмы 2022-2023 [DVDrip, WEB-DLRip, HDrip] (DUB, MVO) [ 2.18 GB ] Средневековье / Jan Žižka / Mediеval | Кириллица | DLRip bober100 Скачать
4 | 0
Фильмы 2022-2023 [DVDrip, WEB-DLRip, HDrip] (DUB, MVO) [ 1.45 GB ] Средневековье / Jan Žižka / Mediеval | Кириллица | DLRip-AVC bober100 Скачать
6 | 0
Фильмы 2022-2023 [DVDrip, WEB-DLRip, HDrip] (DUB, MVO) [ 1.46 GB ] Средневековье / Jan Žižka / Mediеval | Кириллица | DLRip bober100 Скачать
2 | 0

28-11-2019 20:33  


Отключить вcю реклaмy на сайте, в т.ч. и в плеере онлайн просмотра!

    Дорогой пользователь! Огромная просьба, поблагодарите релизера, оцените раздачу и оставьте свои комментарий, если Вы скачали Средневековье через торрент бесплатно!!
    Комментировать посты могут только пользователи прошедшие не сложную регистрацию
    Показать сообщения:    


    Средневековье через торрент
    Скачать бесплатно Средневековье
    Средневековье скачать торрент
    Средневековье смотреть онлайн
    Cкачать фильм Средневековье бесплатно
    Средневековье скачать торрент в хорошем качестве
    Средневековье смотреть онлайн бесплатно в хорошем качестве
    Вы не можете начинать темы
    Вы не можете отвечать на сообщения
    Вы не можете редактировать свои сообщения
    Вы не можете удалять свои сообщения
    Вы не можете голосовать в опросах
    Вы не можете прикреплять файлы к сообщениям
    Вы можете скачивать файлы
    Средневековье / Jan Žižka / Mediеval [2022, Биография, история, военный, драма, WEB-DL 1080p] Дубляж [Кириллица] смотреть онлайн, скачать торрент picoco.icu