Достать ножи: Стеклянная луковица

MVO

Добыча

Дубляж

Уэнсдэй

1 сезон

Тор

Дубляж

13 клиническая

1 сезон

Жестокая ночь

MVO

Одни из нас

1 сезон

Deluxe

pack

Рекомендуем

30

Пиратка

ВАЖНО

ВАЖНО

Ghostwire

Пиратка

jed

RePack

nioh2

RePack

RDR2

RePack

NEED FOR SPEED™ PAYBACK

RePack

скачать торрент

Кинопоиск HD

Острые козырьки 6 сезон

6 сезон

FAR CRY 6

RePack

скачать торрент

Лицензия

скачать торрент

MVO

1

1 сезон

скачать торрент

1 сезон

скачать торрент

Лицензия

  

Ламборгини: Человек-легенда / Lamborghini: The Man Behind the Legend (Роберт Мореско) [2022, Биография, спорт, драма, UHD WEB-DL-HEVC 2160p, (SDR)] Дубляж [Мосфильм-Мастер]

Ламборгини: Человек-легенда через торрент piratbit.org

Раздают: 10 [ 0 KB/s ]
Размер: 8.72 GB | Добавлен: 1 мес. 12 д. назад | Торрент скачан:307 раз
Смотреть онлайн | Скачать | Поддержите нас   

24-12-2022 03:33 Ламборгини: Человек-легенда Скачать торрент  

Ламборгини: Человек-легенда
Lamborghini: The Man Behind the Legend

Год выпуска: 2022
Страна: Италия, США
Студия: Ambi Pictures, Grindstone Entertainment Group, Iervolino & Lady Bacardi Entertainment
Жанр: Биография, спорт, драма
Продолжительность: 01:36:36
Перевод: Дублированный | Мосфильм-Мастер
Субтитры: Русские (Forced, full), английские

Режиссер: Роберт Мореско

rating

В ролях: Фрэнк Грилло, Мира Сорвино, Гэбриел Бирн, Элиана Джонс, Джорджио Кантарини, Патрик Бреннан, Томмазо Базили, Дэн Маттеуччи, Леонардо Чекки, Франческа Тиццано

Описание: Биографическая драма о жизни Ферруччо Ламборгини — сына фермера, мастерившего тракторы, который путем страсти, проб и ошибок создал легендарную машину и бросил вызов самому Энцо Феррари. «Ламборгини: Человек-легенда» — история самого дерзкого стартапа в мире суперкаров.

Качество: UHD WEB-DL-HEVC 2160p
Формат: MKV

Видео: 3832x1596 at 23.976 fps, MPEG-H HEVC SDR ~ 11900 kbps avg
Аудио #01: 48 kHz, AC3, 5.1, 384 Kbps | Дублированный | Мосфильм-Мастер | RUS |
Аудио #02: 48 kHz, E-AC3, 5.1, 640 Kbps | Оригинал | ENG |
скриншот  скриншот  скриншот  скриншот  скриншот  скриншот  

General
Unique ID : 76118158898087062079452912184711280825 (0x3943D2FBB6B0599E41E108EF15C578B9)
Complete name : D:VideosLamborghini.The.Man.Behind.The.Legend.2022.WEB-DL.2160p.SDR.seleZen.mkv
Format : Matroska
Format version : Version 4
File size : 8.72 GiB
Duration : 1 h 36 min
Overall bit rate : 12.9 Mb/s
Movie name : Lamborghini The Man Behind The Legend 2022 from seleZen
Encoded date : UTC 2022-12-23 22:11:22
Writing application : mkvmerge v59.0.0 ('Shining Star') 64-bit
Writing library : libebml v1.4.2 + libmatroska v1.6.4

Video
ID : 1
Format : HEVC
Format/Info : High Efficiency Video Coding
Format profile : Main 10@L5@High
Codec ID : V_MPEGH/ISO/HEVC
Duration : 1 h 36 min
Bit rate : 11.9 Mb/s
Width : 3 832 pixels
Height : 1 596 pixels
Display aspect ratio : 2.40:1
Frame rate mode : Constant
Frame rate : 23.976 FPS
Color space : YUV
Chroma subsampling : 4:2:0
Bit depth : 10 bits
Bits/(Pixel*Frame) : 0.081
Stream size : 8.03 GiB (92%)
Language : English
Default : No
Forced : No
Color range : Limited
Color primaries : BT.709
Transfer characteristics : BT.709
Matrix coefficients : BT.709

Audio #1
ID : 2
Format : AC-3
Format/Info : Audio Coding 3
Commercial name : Dolby Digital
Codec ID : A_AC3
Duration : 1 h 36 min
Bit rate mode : Constant
Bit rate : 384 kb/s
Channel(s) : 6 channels
Channel layout : L R C LFE Ls Rs
Sampling rate : 48.0 kHz
Frame rate : 31.250 FPS (1536 SPF)
Compression mode : Lossy
Stream size : 265 MiB (3%)
Title : Дубляж
Language : Russian
Service kind : Complete Main
Default : Yes
Forced : Yes

Audio #2
ID : 3
Format : E-AC-3
Format/Info : Enhanced AC-3
Commercial name : Dolby Digital Plus
Codec ID : A_EAC3
Duration : 1 h 36 min
Bit rate mode : Constant
Bit rate : 640 kb/s
Channel(s) : 6 channels
Channel layout : L R C LFE Ls Rs
Sampling rate : 48.0 kHz
Frame rate : 31.250 FPS (1536 SPF)
Compression mode : Lossy
Stream size : 442 MiB (5%)
Title : Original
Language : English
Service kind : Complete Main
Default : No
Forced : No

Text #1
ID : 4
Format : UTF-8
Codec ID : S_TEXT/UTF8
Codec ID/Info : UTF-8 Plain Text
Duration : 1 h 31 min
Bit rate : 3 b/s
Frame rate : 0.006 FPS
Count of elements : 35
Stream size : 2.20 KiB (0%)
Title : Forced
Language : Russian
Default : Yes
Forced : Yes

Text #2
ID : 5
Format : UTF-8
Codec ID : S_TEXT/UTF8
Codec ID/Info : UTF-8 Plain Text
Duration : 1 h 21 min
Bit rate : 82 b/s
Frame rate : 0.227 FPS
Count of elements : 1113
Stream size : 49.2 KiB (0%)
Title : Full
Language : Russian
Default : No
Forced : No

Text #3
ID : 6
Format : UTF-8
Codec ID : S_TEXT/UTF8
Codec ID/Info : UTF-8 Plain Text
Duration : 1 h 21 min
Bit rate : 52 b/s
Frame rate : 0.205 FPS
Count of elements : 1002
Stream size : 31.5 KiB (0%)
Title : Full
Language : English
Default : No
Forced : No

Text #4
ID : 7
Format : UTF-8
Codec ID : S_TEXT/UTF8
Codec ID/Info : UTF-8 Plain Text
Duration : 1 h 27 min
Bit rate : 55 b/s
Frame rate : 0.219 FPS
Count of elements : 1154
Stream size : 35.6 KiB (0%)
Title : SDH
Language : English
Default : No
Forced : No

Menu
00:00:00.000 : Chapter 1
00:01:12.000 : Chapter 2
00:15:20.000 : Chapter 3
00:27:29.000 : Chapter 4
00:40:04.000 : Chapter 5
00:52:47.000 : Chapter 6
01:03:54.000 : Chapter 7
01:17:42.000 : Chapter 8
01:29:59.000 : Chapter 9




Скачать Ламборгини: Человек-легенда через торрент https://i121.fastpic.org/big/2022/1224/38/5e1dac9cfe18aef7bb381f47886b9238.jpg Скачать, смотреть онлайн Ламборгини: Человек-легенда бесплантно в хорошем качестве Описание: Биографическая драма о жизни Ферруччо Ламборгини — сына фермера, мастерившего тракторы, который путем страсти, проб и ошибок ... 10 10 7
Торрент: Зарегистрирован [2022-12-24 03:33] · скачан: 307 раз
Статус: √ проверено
Размер: 8.72 GB
Как cкачать? Как скачать Ламборгини: Человек-легенда через торрент | UTorrent

28-11-2019 20:33  


Отключить вcю реклaмy на сайте, в т.ч. и в плеере онлайн просмотра!

    Дорогой пользователь! Огромная просьба, поблагодарите релизера, оцените раздачу и оставьте свои комментарий, если Вы скачали Ламборгини: Человек-легенда через торрент бесплатно!!
    Комментировать посты могут только пользователи прошедшие не сложную регистрацию
    Показать сообщения:    


    Ламборгини: Человек-легенда через торрент
    Скачать бесплатно Ламборгини: Человек-легенда
    Ламборгини: Человек-легенда скачать торрент
    Ламборгини: Человек-легенда смотреть онлайн
    Cкачать фильм Ламборгини: Человек-легенда бесплатно
    Ламборгини: Человек-легенда скачать торрент в хорошем качестве
    Ламборгини: Человек-легенда смотреть онлайн бесплатно в хорошем качестве
    Вы не можете начинать темы
    Вы не можете отвечать на сообщения
    Вы не можете редактировать свои сообщения
    Вы не можете удалять свои сообщения
    Вы не можете голосовать в опросах
    Вы не можете прикреплять файлы к сообщениям
    Вы можете скачивать файлы
    Ламборгини: Человек-легенда / Lamborghini: The Man Behind the Legend [2022, Биография, спорт, драма, UHD WEB-DL-HEVC 2160p, ] Дубляж [Мосфильм-Мастер] смотреть онлайн, скачать торрент picoco.icu