Достать ножи: Стеклянная луковица

MVO

Добыча

Дубляж

Уэнсдэй

1 сезон

Тор

Дубляж

13 клиническая

1 сезон

Жестокая ночь

MVO

Одни из нас

1 сезон

Deluxe

pack

Рекомендуем

30

Пиратка

ВАЖНО

ВАЖНО

Ghostwire

Пиратка

jed

RePack

nioh2

RePack

RDR2

RePack

NEED FOR SPEED™ PAYBACK

RePack

скачать торрент

Кинопоиск HD

Острые козырьки 6 сезон

6 сезон

FAR CRY 6

RePack

скачать торрент

Лицензия

скачать торрент

MVO

1

1 сезон

скачать торрент

1 сезон

скачать торрент

Лицензия

  

Жестокая ночь / Violent Night (Томми Виркола) [2022, Боевик, триллер, комедия, криминал, WEB-DLRip-AVC] Дубляж [TS]

Жестокая ночь через торрент piratbit.org

Раздают: 12 [ 99 KB/s ]
Размер: 2.18 GB | Добавлен: 1 мес. 5 д. назад | Торрент скачан:267 раз
Смотреть онлайн | Скачать | Поддержите нас   

24-12-2022 06:40 Жестокая ночь Скачать торрент  

Жестокая ночь
Violent Night

Год выпуска: 2022
Страна: США, Канада
Студия: 87North, Québec Production Services Tax Credit
Жанр: Боевик, триллер, комедия, криминал
Продолжительность: 01:51:38
Перевод: Дублированный | TS
Субтитры: Aнглийские (Full, SDH)

Режиссер: Томми Виркола

rating

В ролях: Дэвид Харбор, Джон Легуизамо, Алекс Хэсселл, Алексис Лодер, Кэм Жиганде, Эди Паттерсон, Беверли Д`Анджело, Александр Эллиот, Брендан Флетчер, Майк Допуд

Описание: В канун Рождества преступники берут в заложники состоятельную семью, чтобы получить их деньги. Незадолго до этого захваченные родители подарили дочери рацию, по которой можно связаться с Сантой. Девочка вызывает подкрепление в его лице, чтобы проучить захватчиков.

Качество: WEB-DLRip-AVC
Формат: MKV

Видео: MPEG-4 AVC, 1152x480 (2.40:1), 23.976 fps, ~ 2127 kbps avg
Аудио 1: 48 kHz, AC3 Dolby Digital, 2.0 ch, ~ 224 kbps .Rus
Аудио 2: 48 kHz, AC3 Dolby Digital, 5.1 ch, ~ 448 kbps .Eng
скриншот  скриншот  скриншот  скриншот  скриншот  скриншот  

General
Unique ID : 275844942041255236712146047741327121742 (0xCF85CDAADE6BEC417649554C6EAD1D4E)
Complete name : Violent.Night.2022.WEB-DLRip.Rus.Дубляж.TS.2.0.mkv
Format : Matroska
Format version : Version 4 / Version 2
File size : 2.18 GiB
Duration : 1 h 51 min
Overall bit rate : 2 800 kb/s
Encoded date : UTC 2022-12-23 15:28:35
Writing application : mkvmerge v65.0.0 ('Too Much') 64-bit
Writing library : libebml v1.4.2 + libmatroska v1.6.4

Video
ID : 1
Format : AVC
Format/Info : Advanced Video Codec
Format profile : High@L4.1
Format settings : CABAC / 16 Ref Frames
Format settings, CABAC : Yes
Format settings, ReFrames : 16 frames
Codec ID : V_MPEG4/ISO/AVC
Duration : 1 h 51 min
Bit rate : 2 127 kb/s
Width : 1 152 pixels
Height : 480 pixels
Display aspect ratio : 2.40:1
Frame rate mode : Constant
Frame rate : 23.976 (24000/1001) FPS
Color space : YUV
Chroma subsampling : 4:2:0
Bit depth : 8 bits
Scan type : Progressive
Bits/(Pixel*Frame) : 0.160
Stream size : 1.66 GiB (76%)
Title : Violent.Night.2022
Writing library : x264 core 148 r2638 7599210
Encoding settings : cabac=1 / ref=16 / deblock=1:0:0 / analyse=0x3:0x113 / me=umh / subme=10 / psy=1 / psy_rd=1.00:0.00 / mixed_ref=1 / me_range=32 / chroma_me=1 / trellis=2 / 8x8dct=1 / cqm=0 / deadzone=21,11 / fast_pskip=1 / chroma_qp_offset=-2 / threads=12 / lookahead_threads=3 / sliced_threads=0 / nr=0 / decimate=1 / interlaced=0 / bluray_compat=0 / constrained_intra=0 / bframes=16 / b_pyramid=2 / b_adapt=2 / b_bias=0 / direct=3 / weightb=1 / open_gop=0 / weightp=2 / keyint=250 / keyint_min=23 / scenecut=40 / intra_refresh=0 / rc_lookahead=60 / rc=2pass / mbtree=1 / bitrate=2127 / ratetol=1.0 / qcomp=0.60 / qpmin=0 / qpmax=69 / qpstep=4 / cplxblur=20.0 / qblur=0.5 / ip_ratio=1.40 / aq=1:1.00
Default : Yes
Forced : No
Color range : Limited
Color primaries : BT.709
Transfer characteristics : BT.709
Matrix coefficients : BT.709

Audio #1
ID : 2
Format : AC-3
Format/Info : Audio Coding 3
Codec ID : A_AC3
Duration : 1 h 51 min
Bit rate mode : Constant
Bit rate : 224 kb/s
Channel(s) : 2 channels
Channel positions : Front: L R
Sampling rate : 48.0 kHz
Frame rate : 31.250 FPS (1536 SPF)
Bit depth : 16 bits
Compression mode : Lossy
Stream size : 179 MiB (8%)
Title : Rus. Дубляж. TS. 2.0. 224
Language : Russian
Service kind : Complete Main
Default : Yes
Forced : No

Audio #2
ID : 3
Format : AC-3
Format/Info : Audio Coding 3
Codec ID : A_AC3
Duration : 1 h 51 min
Bit rate mode : Constant
Bit rate : 448 kb/s
Channel(s) : 6 channels
Channel positions : Front: L C R, Side: L R, LFE
Sampling rate : 48.0 kHz
Frame rate : 31.250 FPS (1536 SPF)
Bit depth : 16 bits
Compression mode : Lossy
Stream size : 358 MiB (16%)
Title : Eng. AC3. 5.1. 448
Language : English
Service kind : Complete Main
Default : No
Forced : No

Text #1
ID : 4
Format : UTF-8
Codec ID : S_TEXT/UTF8
Codec ID/Info : UTF-8 Plain Text
Duration : 1 h 46 min
Bit rate : 51 b/s
Count of elements : 1510
Stream size : 40.3 KiB (0%)
Title : Eng.
Language : English
Default : No
Forced : No

Text #2
ID : 5
Format : UTF-8
Codec ID : S_TEXT/UTF8
Codec ID/Info : UTF-8 Plain Text
Duration : 1 h 51 min
Bit rate : 68 b/s
Count of elements : 2132
Stream size : 56.3 KiB (0%)
Title : Eng.( SDH )
Language : English
Default : No
Forced : No




Скачать Жестокая ночь через торрент https://i5-imageban-ru.translate.goog/out/2022/12/23/22789fa0c3b95b59cb28d4ecd8721e4a.jpg Скачать, смотреть онлайн Жестокая ночь бесплантно в хорошем качестве Описание: В канун Рождества преступники берут в заложники состоятельную семью, чтобы получить их деньги. Незадолго до этого захваченные ... 8.5 10 11
Торрент: Зарегистрирован [2022-12-24 06:40] · скачан: 267 раз
Статус: T временная
Размер: 2.18 GB
Как cкачать? Как скачать Жестокая ночь через торрент | UTorrent

% Раздел Тема Автор DL S | L
Фильмы (HD 720p, 1080p) (48-60 fps) [ 3.26 GB ] Жестокая ночь / Violent Night | AVO | 1080p 10 bit 60 FPS, AVO dd2d3 Скачать
8 | 3
Фильмы [HD 720p, 1080p] (Хороший звук DUB, MVO) [ 4.6 GB ] Жестокая ночь / Violent Night | Jaskier | 720p bober100 Скачать
15 | 0
Фильмы [HD 720p, 1080p] (Хороший звук DUB, MVO) [ 12.09 GB ] Жестокая ночь / Violent Night | Jaskier | 1080p bober100 Скачать
18 | 1
Ultra HD (UHD: 2K, 4K, 8K) [ 20.44 GB ] Жестокая ночь / Violent Night | Jaskier | 2160p bober100 Скачать
17 | 2
Фильмы 2022-2023 [DVDrip, WEB-DLRip, HDrip] (DUB, MVO) [ 1.46 GB ] Жестокая ночь / Violent Night | Jaskier | DLRip, MVO sitebit Скачать
88 | 2

28-11-2019 20:33  


Отключить вcю реклaмy на сайте, в т.ч. и в плеере онлайн просмотра!

25-12-2022 18:31 Жестокая ночь Скачать торрент  







Последний раз редактировалось: Юретц (2023-01-09 17:05), всего редактировалось 1 раз

01-01-2023 23:40 Жестокая ночь Скачать торрент  

Хорошая и необычная история . Но не для детеи ,так как к примеру пьяный и ссущии с оленеи в низ Санта ,не совсем та сказка которую должны видеть дети



    Дорогой пользователь! Огромная просьба, поблагодарите релизера, оцените раздачу и оставьте свои комментарий, если Вы скачали Жестокая ночь через торрент бесплатно!!
    Комментировать посты могут только пользователи прошедшие не сложную регистрацию
    Показать сообщения:    


    Жестокая ночь через торрент
    Скачать бесплатно Жестокая ночь
    Жестокая ночь скачать торрент
    Жестокая ночь смотреть онлайн
    Cкачать фильм Жестокая ночь бесплатно
    Жестокая ночь скачать торрент в хорошем качестве
    Жестокая ночь смотреть онлайн бесплатно в хорошем качестве
    Вы можете начинать темы
    Вы можете отвечать на сообщения
    Вы не можете редактировать свои сообщения
    Вы не можете удалять свои сообщения
    Вы не можете голосовать в опросах
    Вы не можете прикреплять файлы к сообщениям
    Вы можете скачивать файлы
    Жестокая ночь / Violent Night [2022, Боевик, триллер, комедия, криминал, WEB-DLRip-AVC] Дубляж [TS] смотреть онлайн, скачать торрент picoco.icu