Достать ножи: Стеклянная луковица

MVO

Добыча

Дубляж

Уэнсдэй

1 сезон

Тор

Дубляж

13 клиническая

1 сезон

Жестокая ночь

MVO

Одни из нас

1 сезон

Deluxe

pack

Рекомендуем

30

Пиратка

ВАЖНО

ВАЖНО

Ghostwire

Пиратка

jed

RePack

nioh2

RePack

RDR2

RePack

NEED FOR SPEED™ PAYBACK

RePack

скачать торрент

Кинопоиск HD

Острые козырьки 6 сезон

6 сезон

FAR CRY 6

RePack

скачать торрент

Лицензия

скачать торрент

MVO

1

1 сезон

скачать торрент

1 сезон

скачать торрент

Лицензия

  

Викрам / Vikram (Локеш Канагарадж) [2022, Боевик, триллер, детектив, WEB-DL 1080p] Дубляж [The Kitchen Russia]

Викрам через торрент piratbit.org

Раздают: 4 [ 115 KB/s ]
Размер: 6.33 GB | Добавлен: 1 мес. 3 д. назад | Торрент скачан:142 раза
Смотреть онлайн | Скачать | Поддержите нас   

25-12-2022 16:23 Викрам Скачать торрент  

Викрам
Vikram

Год выпуска: 2022
Страна: Индия
Жанр: Боевик, триллер, детектив
Продолжительность: 02:51:02
Перевод: Дублированный | The Kitchen Russia
Субтитры: отсутствуют

Режиссер: Локеш Канагарадж

rating

В ролях: Камал Хаасан, Виджай Сетхупати, Фахад Фасил, Нараин, Сурья Шивакумар, Калидас Джаярам, Чимбан Винод Джозе, Сантхана Бхаратхи, Кумаравел, Васантхи

Описание: Специальному следователю поручают расследовать дело о серийных убийствах. По мере продвижения расследования он обнаруживает, что дело совсем не такое, каким казалось на первый взгляд, и приведет к войне между всеми, кого касается.

Качество: WEB-DL 1080p
Формат: MKV

Видео: MPEG-4 AVC, 5120 Kb/s, 1920x800
Аудио: 48.0 kHz, AC3 Dolby Digital, 2/0 (L,R) ch, ~ 192 kbps
скриншот  скриншот  скриншот  скриншот  

Complete name: Vikram.2022.WEB-DL.1080p.ELEKTRI4KA.UNIONGANG.mkv
Format: Matroska
Format version: Version 4
File size: 6.33 GiB
Duration: 2 h 51 min
Overall bit rate: 5 295 kb/s
Movie name: Vikram.2022.WEB-DL.1080p.ELEKTRI4KA.UNIONGANG.
Encoded date: UTC 2022-12-24 12:40:07
Writing application: mkvmerge v8.3.0 ('Over the Horizon') 64bit
Writing library: libebml v1.3.1 + libmatroska v1.4.2

Video
ID: 1
Format: AVC
Format/Info: Advanced Video Codec
Format profile: High@L4
Format settings: CABAC / 4 Ref Frames
Format settings, CABAC: Yes
Format settings, Reference frames: 4 frames
Codec ID: V_MPEG4/ISO/AVC
Duration: 2 h 51 min
Bit rate: 5 120 kb/s
Width: 1 920 pixels
Height: 800 pixels
Display aspect ratio: 2.40:1
Frame rate mode: Constant
Frame rate: 24.000 FPS
Color space: YUV
Chroma subsampling: 4:2:0
Bit depth: 8 bits
Scan type: Progressive
Bits/(Pixel*Frame): 0.139
Stream size: 6.09 GiB (96%)
Writing library: x264 core 152 r2854 e9a5903
Encoding settings: cabac=1 / ref=3 / deblock=1:0:0 / analyse=0x3:0x113 / me=hex / subme=7 / psy=1 / psy_rd=1.00:0.00 / mixed_ref=1 / me_range=16 / chroma_me=1 / trellis=1 / 8x8dct=1 / cqm=0 / deadzone=21, 11 / fast_pskip=1 / chroma_qp_offset=-2 / threads=25 / lookahead_threads=4 / sliced_threads=0 / nr=0 / decimate=1 / interlaced=0 / bluray_compat=0 / constrained_intra=0 / bframes=6 / b_pyramid=2 / b_adapt=1 / b_bias=0 / direct=1 / weightb=1 / open_gop=0 / weightp=2 / keyint=48 / keyint_min=25 / scenecut=0 / intra_refresh=0 / rc_lookahead=40 / rc=2pass / mbtree=1 / bitrate=5120 / ratetol=1.0 / qcomp=0.60 / qpmin=0 / qpmax=69 / qpstep=4 / cplxblur=20.0 / qblur=0.5 / vbv_maxrate=7680 / vbv_bufsize=20480 / nal_hrd=none / filler=0 / ip_ratio=1.40 / aq=1:1.00
Default: Yes
Forced: No

Audio
ID: 2
Format: AC-3
Format/Info: Audio Coding 3
Commercial name: Dolby Digital
Codec ID: A_AC3
Duration: 2 h 51 min
Bit rate mode: Constant
Bit rate: 192 kb/s
Channel(s): 2 channels
Channel layout: L R
Sampling rate: 48.0 kHz
Frame rate: 31.250 FPS (1536 SPF)
Compression mode: Lossy
Stream size: 235 MiB (4%)
Title: Дубляж (The Kitchen Russia)
Language: Russian
Service kind: Complete Main
Default: Yes
Forced: Yes




Скачать Викрам через торрент https://i121.fastpic.org/big/2022/1225/93/61e21a958157627691569f5bd750b493.jpg Скачать, смотреть онлайн Викрам бесплантно в хорошем качестве Описание: Специальному следователю поручают расследовать дело о серийных убийствах. По мере продвижения расследования он обнаруживает, что ... 8.4 10 7
Info! Золотая раздача, скачанное не засчитывается.
Торрент: Зарегистрирован [2022-12-25 16:23] · скачан: 142 раз
Статус: √ проверено
Размер: 6.33 GB
Как cкачать? Как скачать Викрам через торрент | UTorrent

28-11-2019 20:33  


Отключить вcю реклaмy на сайте, в т.ч. и в плеере онлайн просмотра!

25-12-2022 20:04 Викрам Скачать торрент  

рейтинг крутяк надо глянуть



25-12-2022 22:15 Викрам Скачать торрент  

и чт снова -ача-ача???



28-12-2022 14:52 Викрам Скачать торрент  

Дичь полная



    Дорогой пользователь! Огромная просьба, поблагодарите релизера, оцените раздачу и оставьте свои комментарий, если Вы скачали Викрам через торрент бесплатно!!
    Комментировать посты могут только пользователи прошедшие не сложную регистрацию
    Показать сообщения:    


    Викрам через торрент
    Скачать бесплатно Викрам
    Викрам скачать торрент
    Викрам смотреть онлайн
    Cкачать фильм Викрам бесплатно
    Викрам скачать торрент в хорошем качестве
    Викрам смотреть онлайн бесплатно в хорошем качестве
    Вы не можете начинать темы
    Вы не можете отвечать на сообщения
    Вы не можете редактировать свои сообщения
    Вы не можете удалять свои сообщения
    Вы не можете голосовать в опросах
    Вы не можете прикреплять файлы к сообщениям
    Вы можете скачивать файлы
    Викрам / Vikram [2022, Боевик, триллер, детектив, WEB-DL 1080p] Дубляж [The Kitchen Russia] смотреть онлайн, скачать торрент picoco.icu