Достать ножи: Стеклянная луковица

MVO

Добыча

Дубляж

Уэнсдэй

1 сезон

Тор

Дубляж

13 клиническая

1 сезон

Жестокая ночь

MVO

Одни из нас

1 сезон

Deluxe

pack

Рекомендуем

30

Пиратка

ВАЖНО

ВАЖНО

Ghostwire

Пиратка

jed

RePack

nioh2

RePack

RDR2

RePack

NEED FOR SPEED™ PAYBACK

RePack

скачать торрент

Кинопоиск HD

Острые козырьки 6 сезон

6 сезон

FAR CRY 6

RePack

скачать торрент

Лицензия

скачать торрент

MVO

1

1 сезон

скачать торрент

1 сезон

скачать торрент

Лицензия

  

Три тысячи лет желаний / Three Thousand Years of Longing (Джордж Миллер) [2022, Фэнтези, драма, мелодрама, UHD BDRemux 2160p] Дубляж [Мосфильм-Мастер]

Три тысячи лет желаний через торрент piratbit.org

Раздают: 4 [ 21 KB/s ] Качают: 1 [ 0 KB/s ]
Размер: 47.71 GB | Добавлен: 1 мес. назад | Торрент скачан:44 раза
Смотреть онлайн | Скачать | Поддержите нас   

04-01-2023 20:37 Три тысячи лет желаний Скачать торрент  

Три тысячи лет желаний
Three Thousand Years of Longing

Год выпуска: 2022
Выпущено: CAA Media Finance, Elevate Production Finance, FilmNation Entertainment
Страна: Австралия, США
Жанр: Фэнтези, драма, мелодрама
Продолжительность: 01:48:23
Перевод: Дублированный | Мосфильм-Мастер
Субтитры: Русские (Forced, full), английские

Режиссер: Джордж Миллер

rating

В ролях: Тильда Суинтон, Идрис Эльба, Алила Броун, Дэвид Коллинз, Джейсон Яго, Каан Гулдур, Энджи Трикер, Пиа Тандерболт, Берк Озтюрк, Энтони Мойссет, Питер Бертони, Лиэнн Маккесси

Описание: Доктор Алтейя Бинни — выдающаяся ученая в области литературы, довольная своей жизнью и всегда руководствующаяся разумом. Поэтому, когда она случайно становится хозяйкой могущественного Джинна, женщина не торопится загадывать ему свои три желания в обмен на его свободу. Во-первых, Алтейя не уверена, что все происходящее вообще реально. А во-вторых, ей известно, чем обычно заканчиваются все истории про джиннов. Благодаря удивительным и невероятным рассказам о своем прошлом Джинну все же удается склонить женщину к желанию, и оно приводит к самым неожиданным для них обоих последствиям.

Качество: UHD BDRemux 2160p
Формат: MKV

Видео: 3840x2160 at 23.976 fps, MPEG-H HEVC HDR ~ 58700 kbps avg
Аудио #01: 48 kHz, AC3, 5.1, 448 Kbps | Дублированный | Мосфильм-Мастер | RUS |
Аудио #02: 48 kHz, E-AC3, 5.1, 448 Kbps | Дублированный | Мосфильм-Мастер | RUS |
Аудио #03: 48 kHz, TrueHD, 7.1, 2905 Kbps | Оригинал | ENG |
Аудио #04: 48 kHz, AC3, 5.1, 448 Kbps | Оригинал | ENG |
скриншот  скриншот  скриншот  скриншот  скриншот  скриншот  

General
Unique ID: 292849959106068019887495425646780568808 (0xDC50D9BD597E7317553C2C6F4E5554E8)
Complete name: F:VideoThree.Thousand.Years.Of.Longing.2022.BDREMUX.2160p.HDR.seleZen.mkv
Format: Matroska
Format version: Version 4
File size: 47.7 GiB
Duration: 1 h 48 min
Overall bit rate mode: Variable
Overall bit rate: 63.0 Mb/s
Movie name: Three Thousand Years Of Longing 2022 from seleZen
Encoded date: UTC 2022-11-18 04:36:33
Writing application: mkvmerge v59.0.0 ('Shining Star') 64-bit
Writing library: libebml v1.4.2 + libmatroska v1.6.4

Video
ID: 1
Format: HEVC
Format/Info: High Efficiency Video Coding
Format profile: Main 10@L5.1@High
HDR format: SMPTE ST 2086, HDR10 compatible
Codec ID: V_MPEGH/ISO/HEVC
Duration: 1 h 48 min
Bit rate: 58.7 Mb/s
Width: 3 840 pixels
Height: 2 160 pixels
Display aspect ratio: 16:9
Frame rate mode: Constant
Frame rate: 23.976 (24000/1001) FPS
Color space: YUV
Chroma subsampling: 4:2:0 (Type 2)
Bit depth: 10 bits
Bits/(Pixel*Frame): 0.295
Stream size: 44.4 GiB (93%)
Default: Yes
Forced: No
Color range: Limited
Color primaries: BT.2020
Transfer characteristics: PQ
Matrix coefficients: BT.2020 non-constant
Mastering display color pri: Display P3
Mastering display luminance: min: 0.0001 cd/m2, max: 1000 cd/m2
Maximum Content Light Level: 1233 cd/m2
Maximum Frame-Average Light: 681 cd/m2

Audio #1
ID: 2
Format: AC-3
Format/Info: Audio Coding 3
Commercial name: Dolby Digital
Codec ID: A_AC3
Duration: 1 h 48 min
Bit rate mode: Constant
Bit rate: 448 kb/s
Channel(s): 6 channels
Channel layout: L R C LFE Ls Rs
Sampling rate: 48.0 kHz
Frame rate: 31.250 FPS (1536 SPF)
Compression mode: Lossy
Stream size: 348 MiB (1%)
Title: Дубляж
Language: Russian
Service kind: Complete Main
Default: Yes
Forced: Yes

Audio #2
ID: 3
Format: E-AC-3
Format/Info: Enhanced AC-3
Commercial name: Dolby Digital Plus
Codec ID: A_EAC3
Duration: 1 h 48 min
Bit rate mode: Constant
Bit rate: 448 kb/s
Channel(s): 6 channels
Channel layout: L R C LFE Ls Rs
Sampling rate: 48.0 kHz
Frame rate: 31.250 FPS (1536 SPF)
Compression mode: Lossy
Stream size: 348 MiB (1%)
Title: Дубляж
Language: Russian
Service kind: Complete Main
Default: No
Forced: No

Audio #3
ID: 4
Format: MLP FBA 16-ch
Format/Info: Meridian Lossless Packing FBA with 16-channel presentation
Commercial name: Dolby TrueHD with Dolby Atmos
Codec ID: A_TRUEHD
Duration: 1 h 48 min
Bit rate mode: Variable
Bit rate: 2 905 kb/s
Maximum bit rate: 5 310 kb/s
Channel(s): 8 channels
Channel layout: L R C LFE Ls Rs Lb Rb
Sampling rate: 48.0 kHz
Frame rate: 1 200.000 FPS (40 SPF)
Compression mode: Lossless
Stream size: 2.20 GiB (5%)
Title: Original
Language: English
Default: No
Forced: No
Number of dynamic objects: 11
Bed channel count: 1 channel
Bed channel configuration: LFE

Audio #4
ID: 5
Format: AC-3
Format/Info: Audio Coding 3
Commercial name: Dolby Digital
Codec ID: A_AC3
Duration: 1 h 48 min
Bit rate mode: Constant
Bit rate: 448 kb/s
Channel(s): 6 channels
Channel layout: L R C LFE Ls Rs
Sampling rate: 48.0 kHz
Frame rate: 31.250 FPS (1536 SPF)
Compression mode: Lossy
Stream size: 347 MiB (1%)
Language: English
Service kind: Complete Main
Default: No
Forced: No

Text #1
ID: 6
Format: UTF-8
Codec ID: S_TEXT/UTF8
Codec ID/Info: UTF-8 Plain Text
Duration: 3 min 16 s
Bit rate: 16 b/s
Frame rate: 0.026 FPS
Count of elements: 5
Stream size: 395 Bytes (0%)
Title: Forced
Language: Russian
Default: Yes
Forced: Yes

Text #2
ID: 7
Format: UTF-8
Codec ID: S_TEXT/UTF8
Codec ID/Info: UTF-8 Plain Text
Duration: 1 h 39 min
Bit rate: 85 b/s
Frame rate: 0.148 FPS
Count of elements: 885
Stream size: 62.3 KiB (0%)
Title: Full
Language: Russian
Default: No
Forced: No

Text #3
ID: 8
Format: UTF-8
Codec ID: S_TEXT/UTF8
Codec ID/Info: UTF-8 Plain Text
Duration: 1 h 39 min
Bit rate: 49 b/s
Frame rate: 0.210 FPS
Count of elements: 1248
Stream size: 35.9 KiB (0%)
Title: Full
Language: English
Default: No
Forced: No

Text #4
ID: 9
Format: UTF-8
Codec ID: S_TEXT/UTF8
Codec ID/Info: UTF-8 Plain Text
Duration: 1 h 39 min
Bit rate: 60 b/s
Frame rate: 0.260 FPS
Count of elements: 1562
Stream size: 44.4 KiB (0%)
Title: SDH
Language: English
Default: No
Forced: No

Menu
00:00:00.000: Глава 01
00:09:37.035: Глава 02
00:18:48.169: Глава 03
00:32:30.115: Глава 04
00:41:21.646: Глава 05
00:49:29.216: Глава 06
01:02:40.507: Глава 07
01:12:50.116: Глава 08
01:21:19.208: Глава 09
01:32:45.143: Глава 10
01:40:36.864: Глава 11




Скачать Три тысячи лет желаний через торрент https://i3-imageban-ru.translate.goog/out/2022/11/18/e27063983d2c5ddd8ad8f32d869be932.jpg Скачать, смотреть онлайн Три тысячи лет желаний бесплантно в хорошем качестве Описание: Доктор Алтейя Бинни — выдающаяся ученая в области литературы, довольная своей жизнью и всегда руководствующаяся разумом. Поэтому, ... 8.9 10 8
Info! Золотая раздача, скачанное не засчитывается.
Торрент: Зарегистрирован [2023-01-04 20:37] · скачан: 44 раз
Статус: √ проверено
Размер: 47.71 GB
Как cкачать? Как скачать Три тысячи лет желаний через торрент | UTorrent

% Раздел Тема Автор DL S | L
Фильмы 2022-2023 [DVDrip, WEB-DLRip, HDrip] (DUB, MVO) [ 1.46 GB ] Три тысячи лет желаний / Three Thousand Years of Longing | Мосфильм-Мастер | BDRip bober100 Скачать
44 | 0
Фильмы [HD 720p, 1080p] (Хороший звук DUB, MVO) [ 11.81 GB ] Три тысячи лет желаний / Three Thousand Years of Longing | Мосфильм-Мастер | 1080p bober100 Скачать
22 | 0
Фильмы 2022-2023 [DVDrip, WEB-DLRip, HDrip] (DUB, MVO) [ 2.15 GB ] Три тысячи лет желаний / Three Thousand Years of Longing | Jaskier | DLRip-AVC bober100 Скачать
5 | 0
Фильмы 2022-2023 [DVDrip, WEB-DLRip, HDrip] (DUB, MVO) [ 2.18 GB ] Три тысячи лет желаний / Three Thousand Years of Longing | Мосфильм-Мастер | BDRip bober100 Скачать
16 | 0
Фильмы (Blu-ray, BD-Remux, HDDVD) [ 28.63 GB ] Три тысячи лет желаний / Three Thousand Years of Longing | Мосфильм-Мастер | BD Remux 1080p bober100 Скачать
5 | 0
Фильмы (WEB-DL 720p, 1080p) [ 4.89 GB ] Три тысячи лет желаний / Three Thousand Years of Longing | Мосфильм-Мастер | 1080p bober100 Скачать
9 | 0
Фильмы 2022-2023 [DVDrip, WEB-DLRip, HDrip] (DUB, MVO) [ 1.91 GB ] Три тысячи лет желаний / Three Thousand Years of Longing | Мосфильм-Мастер | DLRip-AVC bober100 Скачать
5 | 0

28-11-2019 20:33  


Отключить вcю реклaмy на сайте, в т.ч. и в плеере онлайн просмотра!

    Дорогой пользователь! Огромная просьба, поблагодарите релизера, оцените раздачу и оставьте свои комментарий, если Вы скачали Три тысячи лет желаний через торрент бесплатно!!
    Комментировать посты могут только пользователи прошедшие не сложную регистрацию
    Показать сообщения:    


    Три тысячи лет желаний через торрент
    Скачать бесплатно Три тысячи лет желаний
    Три тысячи лет желаний скачать торрент
    Три тысячи лет желаний смотреть онлайн
    Cкачать фильм Три тысячи лет желаний бесплатно
    Три тысячи лет желаний скачать торрент в хорошем качестве
    Три тысячи лет желаний смотреть онлайн бесплатно в хорошем качестве
    Вы не можете начинать темы
    Вы не можете отвечать на сообщения
    Вы не можете редактировать свои сообщения
    Вы не можете удалять свои сообщения
    Вы не можете голосовать в опросах
    Вы не можете прикреплять файлы к сообщениям
    Вы можете скачивать файлы
    Три тысячи лет желаний / Three Thousand Years of Longing [2022, Фэнтези, драма, мелодрама, UHD BDRemux 2160p] Дубляж [Мосфильм-Мастер] смотреть онлайн, скачать торрент picoco.icu