Достать ножи: Стеклянная луковица

MVO

Добыча

Дубляж

Уэнсдэй

1 сезон

Тор

Дубляж

13 клиническая

1 сезон

Жестокая ночь

MVO

Одни из нас

1 сезон

Deluxe

pack

Рекомендуем

30

Пиратка

ВАЖНО

ВАЖНО

Ghostwire

Пиратка

jed

RePack

nioh2

RePack

RDR2

RePack

NEED FOR SPEED™ PAYBACK

RePack

скачать торрент

Кинопоиск HD

Острые козырьки 6 сезон

6 сезон

FAR CRY 6

RePack

скачать торрент

Лицензия

скачать торрент

MVO

1

1 сезон

скачать торрент

1 сезон

скачать торрент

Лицензия

  

Киллер-хранитель / Jugeodo Doeneun Ai / Deo killeo: jukeodo doeneun ai (Чхве Джэ-хун) [2022, боевик, криминал, BDRip-AVC] Дубляж

Киллер-хранитель через торрент piratbit.org

Раздают: 17 [ 73 KB/s ] Качают: 1 [ 0 KB/s ]
Размер: 2.03 GB | Добавлен: 23 д. назад | Торрент скачан:212 раз
Смотреть онлайн | Скачать | Поддержите нас   

05-01-2023 21:44 Киллер-хранитель Скачать торрент  

Название: Киллер-хранитель
Оригинальное название: Deo killeo: jukeodo doeneun ai / Jugeodo Doeneun Ai
Год выхода: 2022
Жанр: боевик, криминал
Режиссер: Чхве Джэ-хун
В ролях: Чан Хёк, Брюс Хан, Ли Со-ён, Ли Сын-джун, Пан Ын-джон, Чха Тхэ-хён

Описание: Отправляясь с подругой в отпуск на остров Чеджу, жена просит И-гана на время их отсутствия присмотреть за 17-летней дочерью подруги Юн-джи. Мужчина не восторге от такой перспективы, поэтому с облегчением разрешает той переночевать у одноклассницы. Но в эту же ночь девушка находит неприятности, И-гану приходится спасать её от местных криминальных элементов, а те в отместку решают повесить на него убийство. Теперь неприятности идут к бандитам.

rating

Страна: Корея Южная
Студия: Ascendio, iHQ
Продолжительность: 01:35:23
Перевод: Профессиональный (дублированный) | Lucky Production
Субтитры: Русские, английские

Файл
Формат: Matroska
Качество: BDRip-AVC
Видео: 1024x428 at 24.000 fps, x264@L4.1, ~2594 kbps
Аудио: AC3, 6 ch, ~448 kbps - | Русский |
Формат субтитров: softsub (SRT)

скриншот  скриншот  скриншот  скриншот  
x264 [info]: frame I:1202 Avg QP:14.98 size: 67431
x264 [info]: frame P:27867 Avg QP:16.74 size: 26896
x264 [info]: frame B:108263 Avg QP:18.61 size: 9463
x264 [info]: consecutive B-frames: 2.4% 2.8% 8.2% 13.2% 14.9% 28.5% 11.1% 10.4% 2.4% 1.2% 1.3% 0.5% 1.1% 1.3% 0.3% 0.1% 0.5%

General
Unique ID : 314904301531810806916458447655836535559 (0xECE85CC5D47A982BAE384B1689CF4B07)
Complete name : D:The.Killer.2022.Дубляж.BDRip.x264.seleZen.mkv
Format : Matroska
Format version : Version 4
File size : 2.03 GiB
Duration : 1 h 35 min
Overall bit rate : 3 043 kb/s
Movie name : The.Killer.2022.Дубляж.BDRip.x264.seleZen
Encoded date : UTC 2023-01-05 15:21:35
Writing application : mkvmerge v73.0.0 ('25 or 6 to 4') 64-bit
Writing library : libebml v1.4.4 + libmatroska v1.7.1
Cover : Yes
Attachments : cover.jpg / small_cover.jpg

Video
ID : 1
Format : AVC
Format/Info : Advanced Video Codec
Format profile : High@L4.1
Format settings : CABAC / 12 Ref Frames
Format settings, CABAC : Yes
Format settings, Reference : 12 frames
Codec ID : V_MPEG4/ISO/AVC
Duration : 1 h 35 min
Bit rate : 2 594 kb/s
Width : 1 024 pixels
Height : 428 pixels
Display aspect ratio : 2.40:1
Frame rate mode : Constant
Frame rate : 24.000 FPS
Color space : YUV
Chroma subsampling : 4:2:0
Bit depth : 8 bits
Scan type : Progressive
Bits/(Pixel*Frame) : 0.247
Stream size : 1.73 GiB (85%)
Title : -=DoMiNo=-
Writing library : x264 core 164 by -=DoMiNo=-
Encoding settings : cabac=1 / ref=12 / deblock=1:-3:-3 / analyse=0x3:0x133 / me=umh / subme=11 / psy=1 / psy_rd=1.02:0.02 / mixed_ref=1 / me_range=48 / chroma_me=1 / trellis=2 / 8x8dct=1 / cqm=0 / deadzone=21,11 / fast_pskip=0 / chroma_qp_offset=-3 / threads=16 / lookahead_threads=3 / sliced_threads=0 / nr=0 / decimate=1 / interlaced=0 / bluray_compat=0 / constrained_intra=0 / bframes=16 / b_pyramid=2 / b_adapt=2 / b_bias=0 / direct=1 / weightb=1 / open_gop=0 / weightp=2 / keyint=250 / keyint_min=24 / scenecut=40 / intra_refresh=0 / rc=crf / mbtree=0 / crf=18.0 / qcomp=0.70 / qpmin=0 / qpmax=69 / qpstep=4 / ip_ratio=1.35 / pb_ratio=1.25 / aq=3:0.80
Language : English
Default : Yes
Forced : No
Color range : Limited
Matrix coefficients : BT.709

Audio
ID : 2
Format : AC-3
Format/Info : Audio Coding 3
Commercial name : Dolby Digital
Codec ID : A_AC3
Duration : 1 h 35 min
Bit rate mode : Constant
Bit rate : 448 kb/s
Channel(s) : 6 channels
Channel layout : L R C LFE Ls Rs
Sampling rate : 48.0 kHz
Frame rate : 31.250 FPS (1536 SPF)
Compression mode : Lossy
Stream size : 306 MiB (15%)
Title : Дубляж
Language : Russian
Service kind : Complete Main
Default : Yes
Forced : Yes

Text #1
ID : 3
Format : UTF-8
Codec ID : S_TEXT/UTF8
Codec ID/Info : UTF-8 Plain Text
Duration : 1 h 29 min
Bit rate : 60 b/s
Count of elements : 598
Stream size : 39.5 KiB (0%)
Title : Full
Language : Russian
Default : No
Forced : No

Text #2
ID : 4
Format : UTF-8
Codec ID : S_TEXT/UTF8
Codec ID/Info : UTF-8 Plain Text
Duration : 1 h 29 min
Bit rate : 33 b/s
Count of elements : 861
Stream size : 22.1 KiB (0%)
Title : SDH
Language : English
Default : No
Forced : No

Menu
00:00:00.000 : de:Chapter 01
00:09:25.708 : de:Chapter 02
00:19:21.250 : de:Chapter 03
00:28:49.500 : de:Chapter 04
00:38:12.666 : de:Chapter 05
00:47:47.583 : de:Chapter 06
00:57:23.458 : de:Chapter 07
01:06:31.416 : de:Chapter 08
01:16:01.250 : de:Chapter 09
01:26:05.125 : de:Chapter 10



Скачать Киллер-хранитель через торрент https://i.postimg.cc/SxgjRWSr/cover.jpg Скачать, смотреть онлайн Киллер-хранитель бесплантно в хорошем качестве Описание: Отправляясь с подругой в отпуск на остров Чеджу, жена просит И-гана на время их отсутствия присмотреть за 17-летней дочерью ... 9 10 6
Info! Золотая раздача, скачанное не засчитывается.
Торрент: Зарегистрирован [2023-01-05 21:44] · скачан: 212 раз
Статус: √ проверено
Размер: 2.03 GB
Как cкачать? Как скачать Киллер-хранитель через торрент | UTorrent

28-11-2019 20:33  


Отключить вcю реклaмy на сайте, в т.ч. и в плеере онлайн просмотра!

06-01-2023 03:27 Киллер-хранитель Скачать торрент  

Топик был перенесен из форума Фильмы 2022-2023 [DVDrip, WEB-DLRip, HDrip] (Дубляж, MVO) в форум Азиатские фильмы


bober100



06-01-2023 05:30 Киллер-хранитель Скачать торрент  

хорошее кино...



06-01-2023 12:55 Киллер-хранитель Скачать торрент  

Корейский Джон Уик, кто любит боевики, смотреть однозначно)



07-01-2023 22:06 Киллер-хранитель Скачать торрент  

Отличный фильм.



19-01-2023 16:25 Киллер-хранитель Скачать торрент  

Фильм понравился, этот актер еще снимался в Мастере меча- тоже зачетное кино.



    Дорогой пользователь! Огромная просьба, поблагодарите релизера, оцените раздачу и оставьте свои комментарий, если Вы скачали Киллер-хранитель через торрент бесплатно!!
    Комментировать посты могут только пользователи прошедшие не сложную регистрацию
    Показать сообщения:    


    Киллер-хранитель через торрент
    Скачать бесплатно Киллер-хранитель
    Киллер-хранитель скачать торрент
    Киллер-хранитель смотреть онлайн
    Cкачать фильм Киллер-хранитель бесплатно
    Киллер-хранитель скачать торрент в хорошем качестве
    Киллер-хранитель смотреть онлайн бесплатно в хорошем качестве
    Вы не можете начинать темы
    Вы не можете отвечать на сообщения
    Вы не можете редактировать свои сообщения
    Вы не можете удалять свои сообщения
    Вы не можете голосовать в опросах
    Вы не можете прикреплять файлы к сообщениям
    Вы можете скачивать файлы
    Киллер-хранитель / Jugeodo Doeneun Ai / Deo killeo: jukeodo doeneun ai [2022, боевик, криминал, BDRip-AVC] Дубляж смотреть онлайн, скачать торрент picoco.icu