Достать ножи: Стеклянная луковица

MVO

Добыча

Дубляж

Уэнсдэй

1 сезон

Тор

Дубляж

13 клиническая

1 сезон

Жестокая ночь

MVO

Одни из нас

1 сезон

Deluxe

pack

Рекомендуем

30

Пиратка

ВАЖНО

ВАЖНО

Ghostwire

Пиратка

jed

RePack

nioh2

RePack

RDR2

RePack

NEED FOR SPEED™ PAYBACK

RePack

скачать торрент

Кинопоиск HD

Острые козырьки 6 сезон

6 сезон

FAR CRY 6

RePack

скачать торрент

Лицензия

скачать торрент

MVO

1

1 сезон

скачать торрент

1 сезон

скачать торрент

Лицензия

  

Стрим / Сезон: 1 / Серии: 1-20 из 20 (Рустам Ильясов) [2022, Комедия, SATRip]

Стрим через торрент piratbit.org

Раздают: 12 [ 582 KB/s ] Качают: 5 [ 0 KB/s ]
Размер: 5.87 GB | Добавлен: 2 д. 18 ч. назад | Торрент скачан:41 раз
Смотреть онлайн | Скачать | Поддержите нас   

09-01-2023 17:04 Стрим Скачать торрент  

Стрим
Год выпуска: 2022
Страна: Россия
Жанр: Комедия
Продолжительность: ~ 00:25:00 серия
Перевод: Не требуется
Субтитры: отсутствуют

Режиссер: Рустам Ильясов

rating

В ролях: Денис Власенко, Александра Дроздова, Тимофей Елецкий, Александра Урсуляк, Семён Штейнберг, Софья Райзман, Антон Филипенко, Александр Семчев, Алексей Маклаков, Ольга Дибцева, Иван Добронравов, Ольга Тумайкина, Иван Агапов, Дмитрий Журавлёв (IV), Елизавета Запорожец

Описание: Жора только что вместе с родителями переехал в другой город, где никак не может наладить отношения с одноклассниками, да и учителя к нему откровенно придираются. Устав терпеть тотальную несправедливость, Жора решает с ней бороться, причём нестандартным образом: школьник надевает на голову шлем с вмонтированной в него камерой и начинает транслировать в интернет всё, что видит дома и в школе.
Одноклассники тут же поднимают его на смех. Учителя и директор школы тоже не в восторге от этой затеи: ведь теперь буквально все могут стать свидетелями некомпетентности, халатности и коррупции, царящих в этом учебном заведении. Но Жора именно этого и добивается. Он хочет, чтобы все теперь видели, как ужасно ведут себя его одноклассники, и как безалаберно относятся к своим обязанностям сотрудники школы. Со временем он превращается в местного супергероя по прозвищу «Стрим», но справится ли он с большой ответственностью, которая приходит вместе с большой силой?

Качество: SATRip
Формат: AVI

Видео: XviD, ~ 1650 Кбит/с, 720x304
Аудио: MP3, 2 ch, 192 Кбит/с
скриншот  скриншот  скриншот  скриншот  

Общее
Полное имя : C:Strim.S01.XviD.SATRip.25Kuzmich\Strim.s01.e01.XviD.SATRip.25Kuzmich.avi
Формат : AVI
Формат/Информация : Audio Video Interleave
Размер файла : 300 Мбайт
Продолжительность : 22 м. 25 с.
Общий поток : 1 872 Кбит/сек
Программа кодирования : VirtualDubMod 1.5.10.3 | www.virtualdub-fr.org || (build 2550/release)
Библиотека кодирования : VirtualDubMod build 2550/release

Видео
Идентификатор : 0
Формат : MPEG-4 Visual
Профиль формата : Advanced Simple@L5
Настройки формата : BVOP1
Параметр BVOP формата : 1
Параметр QPel формата : Нет
Параметр GMC формата : Без точки перехода
Параметр матрицы формата : Default (MPEG)
Идентификатор кодека : XVID
Идентификатор кодека/Подсказка : XviD
Продолжительность : 22 м. 25 с.
Битрейт : 1 670 Кбит/сек
Ширина : 720 пикселей
Высота : 304 пикселя
Соотношение сторон : 2,35:1
Частота кадров : 25,000 кадров/сек
Цветовое пространство : YUV
Субдискретизация насыщенности : 4:2:0
Битовая глубина : 8 бит
Тип развёртки : Прогрессивная
Метод сжатия : С потерями
Бит/(Пиксели*Кадры) : 0.305
Размер потока : 268 Мбайт (89%)
Библиотека кодирования : XviD 73

Аудио
Идентификатор : 1
Формат : MPEG Audio
Версия формата : Version 1
Профиль формата : Layer 3
Идентификатор кодека : 55
Идентификатор кодека/Подсказка : MP3
Продолжительность : 22 м. 25 с.
Вид битрейта : Постоянный
Битрейт : 192 Кбит/сек
Каналы : 2 канала
Частота : 48,0 КГц
Частота кадров : 41,667 кадра/сек (1152 SPF)
Метод сжатия : С потерями
Размер потока : 30,8 Мбайт (10%)
Выравнивание : Соединение по промежуткам
Продолжительность промежутка : 40 мс. (1,00 видеокадр)
Время предзагрузки промежутка : 504 мс.
Библиотека кодирования : LAME3.99r
Настройки программы : -m s -V 4 -q 2 -lowpass 18.6 -b 192

Когда раздача ведётся путём добавления новых серий, при каждом добавлении создётся новый торрент. Чтобы начать докачку новой серии, пользователям необходимо сделать следующее:
(1) остановить скачивание,
(2) удалить старый торрент у себя из клиента (старые серии удалять не надо),
(3) скачать новый торрент и запустить его у себя в клиенте вместо старого, при этом указать клиенту путь в старую папку, куда и должно происходить скачивание новых серий.
Ваш клиент при этом должен произвести хеширование (проверку) старой папки (если не производит сам - помогите ему сделать это), и будет докачивать только те серии, которых у вас ещё нет. Старые серии при этом не удаляются, а продолжают раздаваться!
Eсли вы уже удалили старые серии, то предотвратить повторную закачку старых серий можно, отжав галочку в соответствующих местах при запуске нового торрента. По возможности, желательно не удалять старые серии как можно дольше, чтобы релизер не столько продолжал раздавать старые серии, а смог сконцентрироваться на новых.



Скачать Стрим через торрент https://i121.fastpic.org/big/2023/0110/4a/2bc73977fcbc4f94616f13ed90abf94a.jpg Скачать, смотреть онлайн Стрим бесплантно в хорошем качестве Описание: Жора только что вместе с родителями переехал в другой город, где никак не может наладить отношения с одноклассниками, да и ... 9.1 10 14
Торрент: Зарегистрирован [2023-01-26 15:09] · скачан: 41 раз
Статус: √ проверено
Размер: 5.87 GB
Как cкачать? Как скачать Стрим через торрент | UTorrent

% Раздел Тема Автор DL S | L
Сериалы ТНТ [ 14.81 GB ] Стрим / Сезон: 1 / Серии: 1-20 из 20 | | 1080p bober100 Скачать
12 | 4
Сериалы ТНТ [ 5.72 GB ] Стрим / Сезон: 1 / Серии: 1-20 из 20 | | WEBRip-AVC bober100 Скачать
9 | 7

28-11-2019 20:33  


Отключить вcю реклaмy на сайте, в т.ч. и в плеере онлайн просмотра!

    Дорогой пользователь! Огромная просьба, поблагодарите релизера, оцените раздачу и оставьте свои комментарий, если Вы скачали Стрим через торрент бесплатно!!
    Комментировать посты могут только пользователи прошедшие не сложную регистрацию
    Показать сообщения:    


    Стрим через торрент
    Скачать бесплатно Стрим
    Стрим скачать торрент
    Стрим смотреть онлайн
    Cкачать фильм Стрим бесплатно
    Стрим скачать торрент в хорошем качестве
    Стрим смотреть онлайн бесплатно в хорошем качестве
    Вы не можете начинать темы
    Вы не можете отвечать на сообщения
    Вы не можете редактировать свои сообщения
    Вы не можете удалять свои сообщения
    Вы не можете голосовать в опросах
    Вы не можете прикреплять файлы к сообщениям
    Вы можете скачивать файлы
    Стрим / Сезон: 1 / Серии: 1-20 из 20 [2022, Комедия, SATRip] смотреть онлайн, скачать торрент picoco.icu