Достать ножи: Стеклянная луковица

MVO

Добыча

Дубляж

Уэнсдэй

1 сезон

Тор

Дубляж

13 клиническая

1 сезон

Жестокая ночь

MVO

Одни из нас

1 сезон

Deluxe

pack

Рекомендуем

30

Пиратка

ВАЖНО

ВАЖНО

Ghostwire

Пиратка

jed

RePack

nioh2

RePack

RDR2

RePack

NEED FOR SPEED™ PAYBACK

RePack

скачать торрент

Кинопоиск HD

Острые козырьки 6 сезон

6 сезон

FAR CRY 6

RePack

скачать торрент

Лицензия

скачать торрент

MVO

1

1 сезон

скачать торрент

1 сезон

скачать торрент

Лицензия

  

Одни из нас / The Last of Us / Сезон: 1 / Серии: 1-2 из 9 (Али Аббаси, Джереми Уэбб, Нил Дракманн) [2023, Ужасы, фантастика, боевик, драма, WEB-DLRip] MVO [HDRezka]

Одни из нас через торрент piratbit.org

Раздают: 4 [ 5 KB/s ] Качают: 1 [ 0 KB/s ]
Размер: 1.61 GB | Добавлен: 4 д. назад | Торрент скачан:27 раз
Смотреть онлайн | Скачать | Поддержите нас   

17-01-2023 05:19 Одни из нас Скачать торрент  

Одни из нас
The Last of Us

Год выпуска: 2023
Страна: Канада, США
Выпущено: HBO, Naughty Dog, PlayStation Productions, Sony Pictures Television, Word Games
Жанр: Ужасы, фантастика, боевик, драма
Продолжительность: ~ 01:20:00 серия
Перевод: Профессиональный (многоголосый) | HDRezka
Субтитры: Русские (форсированные hardsub)

Режиссер: Али Аббаси, Джереми Уэбб, Нил Дракманн

rating

В ролях: Педро Паскаль, Белла Рэмси, Гэбриел Луна, Ник Офферман, Кон О’Нилл, Мерл Дэндридж, Джеффри Пирс, Анна Торв, Мюррэй Бартлетт, Марли Грэйс Бекер, Мелани Лински, Эшли Джонсон, Джанни Калькетти, Трой Бэйкер, Сторм Рейд

Описание: Экранизация культовой видеоигры. Человечество столкнулось с грибковой пандемией. Заражённые превращаются в зомби, выжившие борются за ресурсы воцарившегося постапокалипсиса. Контрабандист Джоэл получает задание вывести из карантинной зоны 14-летнюю Элли, чей иммунитет к болезни может помочь в разработке вакцины.

Качество: WEB-DLRip
Формат: AVI

Видео: XviD, 720x400 (16:9), 23.976 fps, ~1500 kbps
Аудио: AC-3, 48 kHz, 2 ch, 192 kbps
скриншот  скриншот  скриншот  скриншот  

Полное имя : The.Last.of.Us.S01.WEB-DLRip.HDRezka\The.Last.of.Us.S01E01.WEB-DLRip.HDRezka.JuSSiKa.avi
Формат : AVI
Формат/Информация : Audio Video Interleave
Размер файла : 1 000 Мбайт
Продолжительность : 1 ч. 20 м.
Общий поток : 1 731 Кбит/сек
Программа кодирования : VirtualDubMod 1.5.10.3 (build 2550/release)
Библиотека кодирования : VirtualDubMod build 2550/release

Видео
Идентификатор : 0
Формат : MPEG-4 Visual
Профиль формата : Advanced Simple@L5
Настройки формата : BVOP1
Параметр BVOP формата : 1
Параметр QPel формата : Нет
Параметр GMC формата : Без точки перехода
Параметр матрицы формата : Default (H.263)
Идентификатор кодека : XVID
Идентификатор кодека/Подсказка : XviD
Продолжительность : 1 ч. 20 м.
Битрейт : 1 529 Кбит/сек
Ширина : 720 пикселей
Высота : 400 пикселей
Соотношение сторон : 16:9
Частота кадров : 23,976 (24000/1001) кадра/сек
Цветовое пространство : YUV
Субдискретизация насыщенности : 4:2:0
Битовая глубина : 8 бит
Тип развёртки : Прогрессивная
Метод сжатия : С потерями
Бит/(Пиксели*Кадры) : 0.221
Размер потока : 884 Мбайт (88%)
Библиотека кодирования : XviD 1.2.1 (UTC 2008-12-04)

Аудио
Идентификатор : 1
Формат : AC-3
Формат/Информация : Audio Coding 3
Коммерческое название : Dolby Digital
Идентификатор кодека : 2000
Продолжительность : 1 ч. 20 м.
Вид битрейта : Постоянный
Битрейт : 192 Кбит/сек
Каналы : 2 канала
Channel layout : L R
Частота : 48,0 КГц
Частота кадров : 31,250 кадров/сек (1536 SPF)
Метод сжатия : С потерями
Размер потока : 111 Мбайт (11%)
Выравнивание : Разделение по промежуткам
Продолжительность промежутка : 42 мс. (1,00 видеокадр)
Время предзагрузки промежутка : 500 мс.
Service kind : Complete Main

Когда раздача ведётся путём добавления новых серий, при каждом добавлении создётся новый торрент. Чтобы начать докачку новой серии, пользователям необходимо сделать следующее:
(1) остановить скачивание,
(2) удалить старый торрент у себя из клиента (старые серии удалять не надо),
(3) скачать новый торрент и запустить его у себя в клиенте вместо старого, при этом указать клиенту путь в старую папку, куда и должно происходить скачивание новых серий.
Ваш клиент при этом должен произвести хеширование (проверку) старой папки (если не производит сам - помогите ему сделать это), и будет докачивать только те серии, которых у вас ещё нет. Старые серии при этом не удаляются, а продолжают раздаваться!
Eсли вы уже удалили старые серии, то предотвратить повторную закачку старых серий можно, отжав галочку в соответсвующих местах при запуске нового торрента. По возможности, желательно не удалять старые серии как можно дольше, чтобы релизёр не столько продолжал раздавать старые серии, а смог сконцентрироваться на новых.




Скачать Одни из нас через торрент https://i121.fastpic.org/big/2023/0117/9b/8575138ffacd9e11ae8f1dffa33c149b.jpeg Скачать, смотреть онлайн Одни из нас бесплантно в хорошем качестве Описание: Экранизация культовой видеоигры. Человечество столкнулось с грибковой пандемией. Заражённые превращаются в зомби, выжившие ... 10 10 5
Торрент: Зарегистрирован [2023-01-24 17:54] · скачан: 27 раз
Статус: √ проверено
Размер: 1.61 GB
Как cкачать? Как скачать Одни из нас через торрент | UTorrent

% Раздел Тема Автор DL S | L
Зарубежные сериалы [ 8.92 GB ] Одни из нас / The Last of Us / Сезон: 1 / Серии: 1-2 из 9 | Дубляж | 1080p bober100 Скачать
19 | 15
* Оформление раздач (Наши, Зарубежные Сериалы) [ 17.7 GB ] Одни из нас / The Last of Us / Сезон: 1 / Серии: 1-2 из 9 | MVO | 2160p laniko Скачать
8 | 7
Зарубежные сериалы [ 18.22 GB ] Одни из нас / The Last of Us / Сезон: 1 / Серии: 1-2 из 9 | MVO | 2160p bober100 Скачать
11 | 22
Зарубежные сериалы [ 8.98 GB ] Одни из нас / The Last of Us / Сезон: 1 / Серии: 1-2 из 9 | MVO | 1080p bober100 Скачать
22 | 38
Зарубежные сериалы [ 6.19 GB ] Одни из нас / The Last of Us / Сезон: 1 / Серии: 1 из 9 | TVShows | 1080p bober100 Скачать
22 | 0
Зарубежные сериалы [ 1000 MB ] Одни из нас / The Last of Us / Сезон: 1 / Серии: 1 из 9 | Дубляж | DLRip bober100 Скачать
3 | 0
Зарубежные сериалы [ 2.88 GB ] Одни из нас / The Last of Us / Сезон: 1 / Серии: 1-2 из 9 | MVO | DLRip-AVC bober100 Скачать
7 | 7

28-11-2019 20:33  


Отключить вcю реклaмy на сайте, в т.ч. и в плеере онлайн просмотра!

    Дорогой пользователь! Огромная просьба, поблагодарите релизера, оцените раздачу и оставьте свои комментарий, если Вы скачали Одни из нас через торрент бесплатно!!
    Комментировать посты могут только пользователи прошедшие не сложную регистрацию
    Показать сообщения:    


    Одни из нас через торрент
    Скачать бесплатно Одни из нас
    Одни из нас скачать торрент
    Одни из нас смотреть онлайн
    Cкачать фильм Одни из нас бесплатно
    Одни из нас скачать торрент в хорошем качестве
    Одни из нас смотреть онлайн бесплатно в хорошем качестве
    Вы не можете начинать темы
    Вы не можете отвечать на сообщения
    Вы не можете редактировать свои сообщения
    Вы не можете удалять свои сообщения
    Вы не можете голосовать в опросах
    Вы не можете прикреплять файлы к сообщениям
    Вы можете скачивать файлы
    Одни из нас / The Last of Us / Сезон: 1 / Серии: 1-2 из 9 [2023, Ужасы, фантастика, боевик, драма, WEB-DLRip] MVO [HDRezka] смотреть онлайн, скачать торрент picoco.icu