Достать ножи: Стеклянная луковица

MVO

Добыча

Дубляж

Уэнсдэй

1 сезон

Тор

Дубляж

13 клиническая

1 сезон

Жестокая ночь

MVO

Одни из нас

1 сезон

Deluxe

pack

Рекомендуем

30

Пиратка

ВАЖНО

ВАЖНО

Ghostwire

Пиратка

jed

RePack

nioh2

RePack

RDR2

RePack

NEED FOR SPEED™ PAYBACK

RePack

скачать торрент

Кинопоиск HD

Острые козырьки 6 сезон

6 сезон

FAR CRY 6

RePack

скачать торрент

Лицензия

скачать торрент

MVO

1

1 сезон

скачать торрент

1 сезон

скачать торрент

Лицензия

  

Остров фигур / Shape Island / Сезон: 1 / Серии: 1-8 из 8 (Дрю Ходжес) [2023, Мультфильм, комедия, WEB-DL 1080p] Дубляж [Iyuno / Apple TV+]

Остров фигур через торрент piratbit.org

Раздают: 5 [ 790 KB/s ] Качают: 1 [ 0 KB/s ]
Размер: 15 GB | Добавлен: 7 д. назад | Торрент скачан:46 раз
Смотреть онлайн | Скачать | Поддержите нас   

21-01-2023 14:58 Остров фигур Скачать торрент  

Остров фигур
Shape Island

Год выпуска: 2023
Страна: США
Выпущено: Apple Original Films
Жанр: Мультфильм, комедия
Продолжительность: ~ 00:25:00 серия
Перевод: Дублированный | Iyuno по заказу Apple TV+
Субтитры: Русские (Forced, Full, SDH), английские (Full, SDH), иврит, украинские

Режиссер: Дрю Ходжес

rating

В ролях: Харви Гильен, Гидеон Адлон, Иветт Николь Браун, Скотт Эдсит

Описание: По мотивам популярной серии книг Мака Бернетта и Йона Классена. На очаровательном островке Квадрат, Треугольник и Круг ищут приключений и учатся принимать различия друг друга.

Качество: WEB-DL 1080p
Формат: MKV

Видео: AVC, 1920x960 (2.000), 23.976 fps, ~9896 kbps
Аудио №1: AC3, 6 ch, 48 kHz, 384 kbps
Аудио №2: AC3, 6 ch, 48 kHz, 384 kbps - Тифлокомментирование
Аудио №3: E-AC3 ATMOS, 6 ch, 48 kHz, 768 kbps
скриншот  скриншот  скриншот  скриншот  

General
Unique ID : 257677942944241845332092503576428274586 (0xC1DAF775394615CC6273DB65BA45E39A)
Complete name : Shape.Island.S01E01.Squares.Very.Kind.Gesture.The.Eclipse.1080p.ATVP.WEB-DL.DD5.1.H.264-EniaHD.mkv
Format : Matroska
Format version : Version 4
File size : 1.95 GiB
Duration : 24 min 22 s
Overall bit rate : 11.4 Mb/s
Writing application : mkvmerge v57.0.0 ('Till The End') 64-bit
Writing library : libebml v1.4.2 + libmatroska v1.6.4

Video
ID : 1
Format : AVC
Format/Info : Advanced Video Codec
Format profile : High@L4
Format settings : CABAC / 4 Ref Frames
Format settings, CABAC : Yes
Format settings, Reference fra : 4 frames
Codec ID : V_MPEG4/ISO/AVC
Duration : 24 min 22 s
Bit rate : 9 896 kb/s
Width : 1 920 pixels
Height : 960 pixels
Display aspect ratio : 2.000
Frame rate mode : Constant
Frame rate : 23.976 (24000/1001) FPS
Color space : YUV
Chroma subsampling : 4:2:0
Bit depth : 8 bits
Scan type : Progressive
Bits/(Pixel*Frame) : 0.224
Stream size : 1.68 GiB (87%)
Default : Yes
Forced : No
Color range : Limited
Color primaries : BT.709
Transfer characteristics : BT.709
Matrix coefficients : BT.709

Audio #1
ID : 2
Format : AC-3
Format/Info : Audio Coding 3
Commercial name : Dolby Digital
Codec ID : A_AC3
Duration : 24 min 22 s
Bit rate mode : Constant
Bit rate : 384 kb/s
Channel(s) : 6 channels
Channel layout : L R C LFE Ls Rs
Sampling rate : 48.0 kHz
Frame rate : 31.250 FPS (1536 SPF)
Compression mode : Lossy
Stream size : 67.0 MiB (3%)
Language : Russian
Service kind : Complete Main
Default : Yes
Forced : No

Audio #2
ID : 3
Format : AC-3
Format/Info : Audio Coding 3
Commercial name : Dolby Digital
Codec ID : A_AC3
Duration : 24 min 22 s
Bit rate mode : Constant
Bit rate : 384 kb/s
Channel(s) : 6 channels
Channel layout : L R C LFE Ls Rs
Sampling rate : 48.0 kHz
Frame rate : 31.250 FPS (1536 SPF)
Compression mode : Lossy
Stream size : 67.0 MiB (3%)
Title : Audio Description
Language : Russian
Service kind : Complete Main
Default : No
Forced : No

Audio #3
ID : 4
Format : E-AC-3 JOC
Format/Info : Enhanced AC-3 with Joint Object Coding
Commercial name : Dolby Digital Plus with Dolby Atmos
Codec ID : A_EAC3
Duration : 24 min 22 s
Bit rate mode : Constant
Bit rate : 768 kb/s
Channel(s) : 6 channels
Channel layout : L R C LFE Ls Rs
Sampling rate : 48.0 kHz
Frame rate : 31.250 FPS (1536 SPF)
Compression mode : Lossy
Stream size : 134 MiB (7%)
Language : English
Service kind : Complete Main
Default : No
Forced : No
Complexity index : 16
Number of dynamic objects : 15
Bed channel count : 1 channel
Bed channel configuration : LFE

Text #1
ID : 5
Format : UTF-8
Codec ID : S_TEXT/UTF8
Codec ID/Info : UTF-8 Plain Text
Duration : 22 min 49 s
Bit rate : 0 b/s
Count of elements : 2
Stream size : 141 Bytes (0%)
Title : Forced
Language : Russian
Default : Yes
Forced : No

Text #2
ID : 6
Format : UTF-8
Codec ID : S_TEXT/UTF8
Codec ID/Info : UTF-8 Plain Text
Duration : 23 min 57 s
Bit rate : 112 b/s
Count of elements : 322
Stream size : 19.8 KiB (0%)
Language : Russian
Default : No
Forced : No

Text #3
ID : 7
Format : UTF-8
Codec ID : S_TEXT/UTF8
Codec ID/Info : UTF-8 Plain Text
Duration : 23 min 2 s
Bit rate : 136 b/s
Count of elements : 365
Stream size : 23.0 KiB (0%)
Title : SDH
Language : Russian
Default : No
Forced : No

Text #4
ID : 8
Format : UTF-8
Codec ID : S_TEXT/UTF8
Codec ID/Info : UTF-8 Plain Text
Duration : 22 min 14 s
Bit rate : 76 b/s
Count of elements : 320
Stream size : 12.5 KiB (0%)
Language : English
Default : No
Forced : No

Text #5
ID : 9
Format : UTF-8
Codec ID : S_TEXT/UTF8
Codec ID/Info : UTF-8 Plain Text
Duration : 22 min 44 s
Bit rate : 87 b/s
Count of elements : 364
Stream size : 14.6 KiB (0%)
Title : SDH
Language : English
Default : No
Forced : No

Text #6
ID : 10
Format : UTF-8
Codec ID : S_TEXT/UTF8
Codec ID/Info : UTF-8 Plain Text
Duration : 23 min 47 s
Bit rate : 94 b/s
Count of elements : 324
Stream size : 16.4 KiB (0%)
Language : Hebrew
Default : No
Forced : No

Text #7
ID : 11
Format : UTF-8
Codec ID : S_TEXT/UTF8
Codec ID/Info : UTF-8 Plain Text
Duration : 23 min 47 s
Bit rate : 111 b/s
Count of elements : 323
Stream size : 19.5 KiB (0%)
Language : Ukrainian
Default : No
Forced : No

Когда раздача ведётся путём добавления новых серий, при каждом добавлении создётся новый торрент. Чтобы начать докачку новой серии, пользователям необходимо сделать следующее:
(1) остановить скачивание,
(2) удалить старый торрент у себя из клиента (старые серии удалять не надо),
(3) скачать новый торрент и запустить его у себя в клиенте вместо старого, при этом указать клиенту путь в старую папку, куда и должно происходить скачивание новых серий.
Ваш клиент при этом должен произвести хеширование (проверку) старой папки (если не производит сам - помогите ему сделать это), и будет докачивать только те серии, которых у вас ещё нет. Старые серии при этом не удаляются, а продолжают раздаваться!
Eсли вы уже удалили старые серии, то предотвратить повторную закачку старых серий можно, отжав галочку в соответсвующих местах при запуске нового торрента. По возможности, желательно не удалять старые серии как можно дольше, чтобы релизёр не столько продолжал раздавать старые серии, а смог сконцентрироваться на новых.




Скачать Остров фигур через торрент https://i6-imageban-ru.translate.goog/out/2023/01/21/8f9b97876fe22b63ad014cbc0f5406f9.jpg Скачать, смотреть онлайн Остров фигур бесплантно в хорошем качестве Описание: По мотивам популярной серии книг Мака Бернетта и Йона Классена. На очаровательном островке Квадрат, Треугольник и Круг ищут ... 10 10 4
Торрент: Зарегистрирован [2023-01-21 14:58] · скачан: 46 раз
Статус: √ проверено
Размер: 15 GB
Как cкачать? Как скачать Остров фигур через торрент | UTorrent

28-11-2019 20:33  


Отключить вcю реклaмy на сайте, в т.ч. и в плеере онлайн просмотра!

21-01-2023 16:56 Остров фигур Скачать торрент  

охренеть



21-01-2023 18:18 Остров фигур Скачать торрент  

Ne to slovo



21-01-2023 23:42 Остров фигур Скачать торрент  

овал и прямоугольник сидят в оппозиции))
зы. посмотрел пару серий. че сказать, действительно семейный. очень полезно показать детям: в бытовых декорациях весьма доступно показаны сложные моральные дилеммы, с которыми неизбежно столкнется любой ребенок, показаны варианты шаблонов решений с ненавязчивым выбором оптимального для всех решения. я честно говоря, с таким еще не сталкивался. вроде смешариков, но без бутафории - ситуации будто взяты буквально из повседневности, без помещения в какую-то сказочную или утрированную обертку. да и ситуации показаны с таким как бы легким сарказмом, не особо трогающим детей, но позволяющим и взрослым слегка поулыбаться. кароч, сам не ожидал, но оценка действительно заслуженная.
зызы. квадрат - пестец какой квадратный) по сути, надо было назвать "куб, шар и пирамида" - мульт трехмерный)



    Дорогой пользователь! Огромная просьба, поблагодарите релизера, оцените раздачу и оставьте свои комментарий, если Вы скачали Остров фигур через торрент бесплатно!!
    Комментировать посты могут только пользователи прошедшие не сложную регистрацию
    Показать сообщения:    


    Остров фигур через торрент
    Скачать бесплатно Остров фигур
    Остров фигур скачать торрент
    Остров фигур смотреть онлайн
    Cкачать фильм Остров фигур бесплатно
    Остров фигур скачать торрент в хорошем качестве
    Остров фигур смотреть онлайн бесплатно в хорошем качестве
    Вы не можете начинать темы
    Вы не можете отвечать на сообщения
    Вы не можете редактировать свои сообщения
    Вы не можете удалять свои сообщения
    Вы не можете голосовать в опросах
    Вы не можете прикреплять файлы к сообщениям
    Вы можете скачивать файлы
    Остров фигур / Shape Island / Сезон: 1 / Серии: 1-8 из 8 [2023, Мультфильм, комедия, WEB-DL 1080p] Дубляж [Iyuno / Apple TV picoco.icu