Достать ножи: Стеклянная луковица

MVO

Добыча

Дубляж

Уэнсдэй

1 сезон

Тор

Дубляж

13 клиническая

1 сезон

Жестокая ночь

MVO

Одни из нас

1 сезон

Deluxe

pack

Рекомендуем

30

Пиратка

ВАЖНО

ВАЖНО

Ghostwire

Пиратка

jed

RePack

nioh2

RePack

RDR2

RePack

NEED FOR SPEED™ PAYBACK

RePack

скачать торрент

Кинопоиск HD

Острые козырьки 6 сезон

6 сезон

FAR CRY 6

RePack

скачать торрент

Лицензия

скачать торрент

MVO

1

1 сезон

скачать торрент

1 сезон

скачать торрент

Лицензия

  

Логово / The Lair (Нил Маршалл) [2022, Ужасы, боевик, BDRip-AVC] Дубляж [СиПиАй Филмз / CPI Films]

Логово через торрент piratbit.org

Раздают: 6 [ 224 KB/s ]
Размер: 1.86 GB | Добавлен: 6 д. назад | Торрент скачан:83 раза
Смотреть онлайн | Скачать | Поддержите нас   

22-01-2023 16:13 Логово Скачать торрент  

Логово
The Lair

Год выпуска: 2022
Страна: Великобритания, США, Венгрия
Студия: Ashland Hill Media Finance, Ingenious Film Partners, Rather Good Films, Scarlett Productions Ltd.
Жанр: Ужасы, боевик
Продолжительность: 01:37:02
Перевод: Дублированный | СиПиАй Филмз / CPI Films
Субтитры: Русские (Forced), английские

Режиссер: Нил Маршалл

rating

В ролях: Шарлотта Кирк, Джонатан Ховард, Джейми Бамбер, Леон Окенден, Трой Александр, Чезаре Таурази, Марк Стрепан, Хади Ханъянпур, Тандзи Кибонг, Марк Арендс

Описание: Пилот-лейтенант Кейт Синклер, сбитая повстанцами в Афганистане, убегая от них, прячется в заброшенном подземном бункере, где пробуждается смертоносное биологическое оружие — человек, скрещенный с инопланетянином, созданное русскими во времена афганской войны.

Качество: BDRip-AVC
Формат: MKV

Видео: MPEG-4 AVC, 1024x436 at 23.976 fps, x264@L4.1, ~1910 kbps
Аудио #01: 48 kHz, AC3, 5.1, 384 Kbps | Дублированный | СиПиАй Филмз / CPI Films | RUS |
Аудио #02: 48 kHz, AC3, 5.1, 448 Kbps | Оригинал | ENG |
скриншот  скриншот  скриншот  скриншот  

x264 [info]: frame I:1204 Avg QP:14.77 size: 52864
x264 [info]: frame P:32374 Avg QP:16.61 size: 19882
x264 [info]: frame B:105999 Avg QP:18.58 size: 6438
x264 [info]: consecutive B-frames: 3.2% 3.5% 11.0% 22.2% 17.8% 29.5% 4.7% 1.9% 1.6% 1.0% 1.0% 0.8% 0.5%

General
Unique ID : 322168722279213916967365894884775404026 (0xF25F705E41DA6C0FAF9CE783B467A1FA)
Complete name : H:The.Lair.2022.BDRip.x264.seleZen.mkv
Format : Matroska
Format version : Version 4
File size : 1.86 GiB
Duration : 1 h 37 min
Overall bit rate : 2 744 kb/s
Movie name : The.Lair.2022.BDRip.x264.seleZen
Encoded date : UTC 2023-01-22 12:18:33
Writing application : mkvmerge v73.0.0 ('25 or 6 to 4') 64-bit
Writing library : libebml v1.4.4 + libmatroska v1.7.1
Cover : Yes
Attachments : cover.jpg / small_cover.jpg

Video
ID : 1
Format : AVC
Format/Info : Advanced Video Codec
Format profile : High@L4.1
Format settings : CABAC / 11 Ref Frames
Format settings, CABAC : Yes
Format settings, Reference : 11 frames
Codec ID : V_MPEG4/ISO/AVC
Duration : 1 h 37 min
Bit rate : 1 910 kb/s
Width : 1 024 pixels
Height : 436 pixels
Display aspect ratio : 2.35:1
Frame rate mode : Constant
Frame rate : 23.976 (24000/1001) FPS
Color space : YUV
Chroma subsampling : 4:2:0
Bit depth : 8 bits
Scan type : Progressive
Bits/(Pixel*Frame) : 0.178
Stream size : 1.29 GiB (70%)
Title : -=DoMiNo=-
Writing library : x264 core 164 by -=DoMiNo=-
Encoding settings : cabac=1 / ref=11 / deblock=1:-3:-3 / analyse=0x3:0x133 / me=umh / subme=11 / psy=1 / psy_rd=1.03:0.05 / mixed_ref=1 / me_range=48 / chroma_me=1 / trellis=2 / 8x8dct=1 / cqm=0 / deadzone=21,11 / fast_pskip=0 / chroma_qp_offset=-3 / threads=24 / lookahead_threads=3 / sliced_threads=0 / nr=0 / decimate=1 / interlaced=0 / bluray_compat=0 / constrained_intra=0 / bframes=12 / b_pyramid=2 / b_adapt=2 / b_bias=0 / direct=1 / weightb=1 / open_gop=0 / weightp=2 / keyint=240 / keyint_min=23 / scenecut=40 / intra_refresh=0 / rc=crf / mbtree=0 / crf=18.0 / qcomp=0.60 / qpmin=0 / qpmax=69 / qpstep=4 / ip_ratio=1.35 / pb_ratio=1.25 / aq=3:0.80
Language : English
Default : Yes
Forced : No
Color range : Limited
Matrix coefficients : BT.709

Audio #1
ID : 2
Format : AC-3
Format/Info : Audio Coding 3
Commercial name : Dolby Digital
Codec ID : A_AC3
Duration : 1 h 37 min
Bit rate mode : Constant
Bit rate : 384 kb/s
Channel(s) : 6 channels
Channel layout : L R C LFE Ls Rs
Sampling rate : 48.0 kHz
Frame rate : 31.250 FPS (1536 SPF)
Compression mode : Lossy
Stream size : 266 MiB (14%)
Title : Дубляж
Language : Russian
Service kind : Complete Main
Default : Yes
Forced : Yes

Audio #2
ID : 3
Format : AC-3
Format/Info : Audio Coding 3
Commercial name : Dolby Digital
Codec ID : A_AC3
Duration : 1 h 37 min
Bit rate mode : Constant
Bit rate : 448 kb/s
Channel(s) : 6 channels
Channel layout : L R C LFE Ls Rs
Sampling rate : 48.0 kHz
Frame rate : 31.250 FPS (1536 SPF)
Compression mode : Lossy
Stream size : 311 MiB (16%)
Title : Original
Language : English
Service kind : Complete Main
Default : No
Forced : No

Text #1
ID : 4
Format : UTF-8
Codec ID : S_TEXT/UTF8
Codec ID/Info : UTF-8 Plain Text
Duration : 1 min 8 s
Bit rate : 99 b/s
Frame rate : 0.088 FPS
Count of elements : 6
Stream size : 845 Bytes (0%)
Title : Forced
Language : Russian
Default : Yes
Forced : No

Text #2
ID : 5
Format : UTF-8
Codec ID : S_TEXT/UTF8
Codec ID/Info : UTF-8 Plain Text
Duration : 1 h 28 min
Bit rate : 41 b/s
Frame rate : 0.184 FPS
Count of elements : 981
Stream size : 26.9 KiB (0%)
Language : English
Default : No
Forced : No

Menu
00:00:00.000 : en:00:00:00.000
00:09:57.597 : en:00:09:57.597
00:19:18.074 : en:00:19:18.074
00:32:45.589 : en:00:32:45.589
00:39:41.588 : en:00:39:41.588
00:53:33.335 : en:00:53:33.335
01:04:31.785 : en:01:04:31.785
01:15:10.214 : en:01:15:10.214
01:26:57.087 : en:01:26:57.087




Скачать Логово через торрент https://i121.fastpic.org/big/2023/0121/96/c52ee26f54851a5d4f89c1f9d9cb0f96.jpg Скачать, смотреть онлайн Логово бесплантно в хорошем качестве Описание: Пилот-лейтенант Кейт Синклер, сбитая повстанцами в Афганистане, убегая от них, прячется в заброшенном подземном бункере, где ... 10 10 7
Торрент: Зарегистрирован [2023-01-22 16:13] · скачан: 83 раз
Статус: √ проверено
Размер: 1.86 GB
Как cкачать? Как скачать Логово через торрент | UTorrent

% Раздел Тема Автор DL S | L
Фильмы [HD 720p, 1080p] (Хороший звук DUB, MVO) [ 9.55 GB ] Логово / The Lair | DUB | 1080p bober100 Скачать
12 | 1
Фильмы [HD 720p, 1080p] (Хороший звук DUB, MVO) [ 4.88 GB ] Логово / The Lair | DUB | 720p bober100 Скачать
6 | 0
Фильмы 2022-2023 [DVDrip, WEB-DLRip, HDrip] (DUB, MVO) [ 1.46 GB ] Логово / The Lair | DUB | BDRip bober100 Скачать
17 | 0
Фильмы (Blu-ray, BD-Remux, HDDVD) [ 16.49 GB ] Логово / The Lair | DUB | BD Remux 1080p bober100 Скачать
7 | 0
Фильмы 2022-2023 [DVDrip, WEB-DLRip, HDrip] (DUB, MVO) [ 746 MB ] Логово / The Lair | DUB | BDRip bober100 Скачать
3 | 0

28-11-2019 20:33  


Отключить вcю реклaмy на сайте, в т.ч. и в плеере онлайн просмотра!

    Дорогой пользователь! Огромная просьба, поблагодарите релизера, оцените раздачу и оставьте свои комментарий, если Вы скачали Логово через торрент бесплатно!!
    Комментировать посты могут только пользователи прошедшие не сложную регистрацию
    Показать сообщения:    


    Логово через торрент
    Скачать бесплатно Логово
    Логово скачать торрент
    Логово смотреть онлайн
    Cкачать фильм Логово бесплатно
    Логово скачать торрент в хорошем качестве
    Логово смотреть онлайн бесплатно в хорошем качестве
    Вы можете начинать темы
    Вы можете отвечать на сообщения
    Вы не можете редактировать свои сообщения
    Вы не можете удалять свои сообщения
    Вы не можете голосовать в опросах
    Вы не можете прикреплять файлы к сообщениям
    Вы можете скачивать файлы
    Логово / The Lair [2022, Ужасы, боевик, BDRip-AVC] Дубляж [СиПиАй Филмз / CPI Films] смотреть онлайн, скачать торрент picoco.icu