Достать ножи: Стеклянная луковица

MVO

Добыча

Дубляж

Уэнсдэй

1 сезон

Тор

Дубляж

13 клиническая

1 сезон

Жестокая ночь

MVO

Одни из нас

1 сезон

Deluxe

pack

Рекомендуем

30

Пиратка

ВАЖНО

ВАЖНО

Ghostwire

Пиратка

jed

RePack

nioh2

RePack

RDR2

RePack

NEED FOR SPEED™ PAYBACK

RePack

скачать торрент

Кинопоиск HD

Острые козырьки 6 сезон

6 сезон

FAR CRY 6

RePack

скачать торрент

Лицензия

скачать торрент

MVO

1

1 сезон

скачать торрент

1 сезон

скачать торрент

Лицензия

  

Последний рейс / Paradise Highway (Анна Гуттормсгард) [2022, Триллер, BDRip 1080p] Дубляж [Велес]

Последний рейс через торрент piratbit.org

Раздают: 13 [ 4 MB/s ] Качают: 1 [ 0 KB/s ]
Размер: 16.36 GB | Добавлен: 5 д. назад | Торрент скачан:78 раз
Смотреть онлайн | Скачать | Поддержите нас   

24-01-2023 03:51 Последний рейс Скачать торрент  

Последний рейс
Paradise Highway

Год выпуска: 2022
Страна: Германия, США, Швейцария
Студия: Praesens-Film, Silver Reel, Strike Accord, ZDF Enterprises
Жанр: Триллер
Продолжительность: 01:54:43
Перевод: Дублированный | Велес
Субтитры: Русские (Forced, full), английские

Режиссер: Анна Гуттормсгард

rating

В ролях: Морган Фриман, Жюльет Бинош, Камерон Монахэн, Фрэнк Грилло, Кристиана Сидел, Вероника Феррес, Джеки Даллас, Хала Финли, Томми Эрл Дженкенс, Уокер Бэбингтон

Описание: Водительница грузовика Салли соглашается на нелегальные перевозки, чтобы спасти своего брата от банды преступников. Когда финальным грузом оказывается девочка-подросток, совесть Салли проходит тяжелейшее испытание. В это время оперативники ФБР уже вышли на ее след. «Последний рейс» — триллер с Жюльет Бинош и Морганом Фриманом в главных ролях.

Качество: BDRip 1080p
Формат: MKV

Видео: MPEG-4 AVC, 1920x804, 19.4 Mbit/s, 23.976 fps
Аудио #01: 48 kHz, AC3, 5.1, 384 Kbps | Дублированный | Велес | RUS |
Аудио #02: 48 kHz, AC3, 5.1, 640 Kbps | Оригинал | ENG |
скриншот  скриншот  скриншот  скриншот  скриншот  скриншот  

General
Unique ID: 11614950367686183058596956051346016125 (0x8BCF5442DABABC18A597C8F4207C77D)
Complete name: D:VideoDParadise.Highway.2022.BDRip.1080p.seleZen.mkv
Format: Matroska
Format version: Version 4
File size: 16.4 GiB
Duration: 1 h 54 min
Overall bit rate: 20.4 Mb/s
Movie name: Paradise Highway 2022 from seleZen
Encoded date: UTC 2023-01-23 23:55:53
Writing application: mkvmerge v59.0.0 ('Shining Star') 64-bit
Writing library: libebml v1.4.2 + libmatroska v1.6.4

Video
ID: 1
Format: AVC
Format/Info: Advanced Video Codec
Format profile: High@L4.1
Format settings: CABAC / 5 Ref Frames
Format settings, CABAC: Yes
Format settings, Reference: 5 frames
Codec ID: V_MPEG4/ISO/AVC
Duration: 1 h 54 min
Bit rate: 19.4 Mb/s
Width: 1 920 pixels
Height: 804 pixels
Display aspect ratio: 2.40:1
Frame rate mode: Constant
Frame rate: 23.976 (24000/1001) FPS
Color space: YUV
Chroma subsampling: 4:2:0
Bit depth: 8 bits
Scan type: Progressive
Bits/(Pixel*Frame): 0.524
Stream size: 15.5 GiB (95%)
Title: iFT
Writing library: x264 core 164 r3094+49M Encoded by Azevedo @ iFT
Encoding settings: cabac=1 / ref=5 / deblock=1:-3:-3 / analyse=0x3:0x113 / me=umh / subme=10 / psy=1 / fade_compensate=0.00 / psy_rd=1.05:0.00 / mixed_ref=1 / me_range=32 / chroma_me=1 / trellis=2 / 8x8dct=1 / cqm=0 / deadzone=21, 11 / fast_pskip=0 / chroma_qp_offset=-2 / threads=18 / lookahead_threads=4 / sliced_threads=0 / nr=0 / decimate=0 / interlaced=0 / bluray_compat=0 / constrained_intra=0 / fgo=0 / bframes=13 / b_pyramid=2 / b_adapt=2 / b_bias=0 / direct=3 / weightb=1 / open_gop=0 / weightp=2 / keyint=250 / keyint_min=23 / scenecut=40 / intra_refresh=0 / rc_lookahead=60 / rc=crf / mbtree=0 / crf=17.1000 / qcomp=0.60 / qpmin=0:0:0 / qpmax=69:69:69 / qpstep=4 / vbv_maxrate=62500 / vbv_bufsize=78125 / crf_max=0.0 / nal_hrd=none / filler=0 / ip_ratio=1.30 / pb_ratio=1.20 / aq=3:0.80 / aq-sensitivity=10.00 / aq-factor=1.00:1.00:1.00 / aq2=0 / aq3=0 / zones=24, 1104, crf=14/158303, 165048, crf=21
Language: English
Default: Yes
Forced: No
Color range: Limited
Color primaries: BT.709
Transfer characteristics: BT.709
Matrix coefficients: BT.709

Audio #1
ID: 2
Format: AC-3
Format/Info: Audio Coding 3
Commercial name: Dolby Digital
Codec ID: A_AC3
Duration: 1 h 54 min
Bit rate mode: Constant
Bit rate: 384 kb/s
Channel(s): 6 channels
Channel layout: L R C LFE Ls Rs
Sampling rate: 48.0 kHz
Frame rate: 31.250 FPS (1536 SPF)
Compression mode: Lossy
Stream size: 315 MiB (2%)
Title: Дубляж
Language: Russian
Service kind: Complete Main
Default: Yes
Forced: Yes

Audio #2
ID: 3
Format: AC-3
Format/Info: Audio Coding 3
Commercial name: Dolby Digital
Codec ID: A_AC3
Duration: 1 h 54 min
Bit rate mode: Constant
Bit rate: 640 kb/s
Channel(s): 6 channels
Channel layout: L R C LFE Ls Rs
Sampling rate: 48.0 kHz
Frame rate: 31.250 FPS (1536 SPF)
Compression mode: Lossy
Stream size: 525 MiB (3%)
Title: Original
Language: English
Service kind: Complete Main
Default: No
Forced: No

Text #1
ID: 4
Format: UTF-8
Codec ID: S_TEXT/UTF8
Codec ID/Info: UTF-8 Plain Text
Duration: 1 h 22 min
Bit rate: 0 b/s
Frame rate: 0.001 FPS
Count of elements: 6
Stream size: 274 Bytes (0%)
Title: Forced
Language: Russian
Default: Yes
Forced: Yes

Text #2
ID: 5
Format: UTF-8
Codec ID: S_TEXT/UTF8
Codec ID/Info: UTF-8 Plain Text
Duration: 1 h 48 min
Bit rate: 62 b/s
Frame rate: 0.162 FPS
Count of elements: 1054
Stream size: 49.5 KiB (0%)
Title: Full
Language: Russian
Default: No
Forced: No

Text #3
ID: 6
Format: UTF-8
Codec ID: S_TEXT/UTF8
Codec ID/Info: UTF-8 Plain Text
Duration: 1 h 48 min
Bit rate: 42 b/s
Frame rate: 0.156 FPS
Count of elements: 1014
Stream size: 34.0 KiB (0%)
Title: Full
Language: English
Default: No
Forced: No

Text #4
ID: 7
Format: UTF-8
Codec ID: S_TEXT/UTF8
Codec ID/Info: UTF-8 Plain Text
Duration: 1 h 52 min
Bit rate: 47 b/s
Frame rate: 0.180 FPS
Count of elements: 1218
Stream size: 39.3 KiB (0%)
Title: SDH
Language: English
Default: No
Forced: No

Menu
00:00:00.000: en:Chapter 01
00:07:30.450: en:Chapter 02
00:15:18.918: en:Chapter 03
00:23:41.420: en:Chapter 04
00:28:56.735: en:Chapter 05
00:35:44.142: en:Chapter 06
00:41:17.475: en:Chapter 07
00:48:38.916: en:Chapter 08
00:54:45.282: en:Chapter 09
01:01:13.670: en:Chapter 10
01:08:08.084: en:Chapter 11
01:17:09.625: en:Chapter 12
01:21:44.900: en:Chapter 13
01:29:46.881: en:Chapter 14
01:38:38.913: en:Chapter 15
01:50:08.352: en:Chapter 16




Скачать Последний рейс через торрент https://i121.fastpic.org/big/2023/0124/c4/04d1ab44d634cda188562cb52ff274c4.jpg Скачать, смотреть онлайн Последний рейс бесплантно в хорошем качестве Описание: Водительница грузовика Салли соглашается на нелегальные перевозки, чтобы спасти своего брата от банды преступников. Когда ... 10 10 6
Торрент: Зарегистрирован [2023-01-24 03:51] · скачан: 78 раз
Статус: √ проверено
Размер: 16.36 GB
Как cкачать? Как скачать Последний рейс через торрент | UTorrent

% Раздел Тема Автор DL S | L
Фильмы (Blu-ray, BD-Remux, HDDVD) [ 24.77 GB ] Последний рейс / Paradise Highway | Велес | BD Remux 1080p bober100 Скачать
4 | 0
Фильмы 2022-2023 [DVDrip, WEB-DLRip, HDrip] (DUB, MVO) [ 749 MB ] Последний рейс / Paradise Highway | Велес | BDRip bober100 Скачать
7 | 1
Фильмы 2022-2023 [DVDrip, WEB-DLRip, HDrip] (DUB, MVO) [ 2.31 GB ] Последний рейс / Paradise Highway | Велес | BDRip-AVC bober100 Скачать
10 | 0
Фильмы 2022-2023 [DVDrip, WEB-DLRip, HDrip] (DUB, MVO) [ 2.18 GB ] Последний рейс / Paradise Highway | Велес | BDRip bober100 Скачать
12 | 0
Фильмы 2022-2023 [DVDrip, WEB-DLRip, HDrip] (DUB, MVO) [ 1.46 GB ] Последний рейс / Paradise Highway | Велес | BDRip bober100 Скачать
15 | 2
Фильмы [HD 720p, 1080p] (Хороший звук DUB, MVO) [ 7.84 GB ] Последний рейс / Paradise Highway | Велес | 720p bober100 Скачать
12 | 2

28-11-2019 20:33  


Отключить вcю реклaмy на сайте, в т.ч. и в плеере онлайн просмотра!

    Дорогой пользователь! Огромная просьба, поблагодарите релизера, оцените раздачу и оставьте свои комментарий, если Вы скачали Последний рейс через торрент бесплатно!!
    Комментировать посты могут только пользователи прошедшие не сложную регистрацию
    Показать сообщения:    


    Последний рейс через торрент
    Скачать бесплатно Последний рейс
    Последний рейс скачать торрент
    Последний рейс смотреть онлайн
    Cкачать фильм Последний рейс бесплатно
    Последний рейс скачать торрент в хорошем качестве
    Последний рейс смотреть онлайн бесплатно в хорошем качестве
    Вы не можете начинать темы
    Вы не можете отвечать на сообщения
    Вы не можете редактировать свои сообщения
    Вы не можете удалять свои сообщения
    Вы не можете голосовать в опросах
    Вы не можете прикреплять файлы к сообщениям
    Вы можете скачивать файлы
    Последний рейс / Paradise Highway [2022, Триллер, BDRip 1080p] Дубляж [Велес] смотреть онлайн, скачать торрент picoco.icu