Аватар: Путь воды

Лицензия

Сансара

1 сезон

скачать смотреть онлайн John Wick Chapter 4

MVO

Крик 6

Дубляж

13 клиническая

3 сезон

Восстание зловещих мертвецов

Дубляж

Одни из нас

Дубляж

Dead Island 2 Gold

Gold

Deluxe

Deluxe

pack

Рекомендуем

ВАЖНО

ВАЖНО

30

Repack

The Lord of the Rings: Gollum

Лицензия

jed

RePack

nioh2

RePack

RDR2

RePack

NEED FOR SPEED™ PAYBACK

RePack

скачать торрент

Кинопоиск HD

Острые козырьки 6 сезон

6 сезон

FAR CRY 6

RePack

скачать торрент

Лицензия

скачать торрент

MVO

1

1 сезон

скачать торрент

1 сезон

скачать торрент

Лицензия

  

Жить жизнь / Сезон: 1 / Серии: 1-8 из 8 (Артем Аксененко) [2023, Триллер, WEBRip 1080p]

Жить жизнь через торрент piratbit.org

Раздают: 15 [ 2 MB/s ] Качают: 7 [ 687 KB/s ]
Размер: 13.71 GB | Добавлен: 6 д. назад | Торрент скачан:59 раз
Смотреть онлайн | Скачать | Поддержите нас   

13-04-2023 03:44 Жить жизнь Скачать торрент  

Жить жизнь
Год выпуска: 2023
Страна: Россия
Жанр: Триллер
Продолжительность: ~ 00:45:00 серия
Субтитры: Русские (SDH)

Режиссер: Артем Аксененко

rating

В ролях: Любовь Аксёнова, Роман Васильев, Дарья Мороз, Евгений Шварц, Юрий Чурсин, Александра Ребенок, Игорь Гордин, Матвей Лыков, Даниил Воробьев, Анастасия Крылова, Юлия Джулай, Владислав Ценёв, Владислав Михальченко, Иван Породнов, Дарья Екамасова, Наталья Швец, Данил Акутин, Николай Ширяев

Описание: 30-летняя Аня — образованная и яркая девушка. У нее состоявшаяся карьера маркетолога и большой круг друзей. Трагическая смерть мужа не сломала ее, а заставила переосмыслить свою жизнь и идти дальше. Она не спешит заводить новые отношения, а выстраивает свою жизнь свободно и независимо, пока не встречает нового избранника. Аня сталкивается с осознанной манипуляцией с его стороны и понимает, что цикличность нездоровых отношений в ее жизни не случайна.

Качество: WEBRip 1080p
Формат: MKV

Видео: MPEG-4 AVC, 1920x1080, ~ 5000 Кбит/с, 0.096 bit/pixel, 25 Кадр/с
Аудио 1: AC3, 48,0 КГц, 2 ch, 256 Кбит/с | RUS
Аудио 2: AC3, 48,0 КГц, 6 ch, 384 Кбит/с | RUS
скриншот  скриншот  скриншот  скриншот  скриншот  скриншот  

Общее
Уникальный идентификатор : 321020658729932405093605305124143064112 (0xF18254770BA1F023DA311599F7B96430)
Полное имя : D:\Zhit.zhizn.S01.2023.WEBRip.1080p\Zhit.zhizn.S01.E01.2023.WEBRip.1080p.mkv
Формат : Matroska
Версия формата : Version 4
Размер файла : 1,78 Гбайт
Продолжительность : 46 м. 21 с.
Общий поток : 5 499 Кбит/сек
Название фильма : Zhit.zhizn.S01.E01.2023.WEBRip.1080p
Дата кодирования : UTC 2023-04-12 22:21:28
Программа кодирования : mkvmerge v75.0.0 ('Goliath') 64-bit
Библиотека кодирования : libebml v1.4.4 + libmatroska v1.7.1
Attachments : poster.jpg

Видео
Идентификатор : 1
Формат : AVC
Формат/Информация : Advanced Video Codec
Профиль формата : [email protected]
Настройки формата : CABAC / 4 Ref Frames
Параметр CABAC формата : Да
Параметр RefFrames формата : 4 кадра
Идентификатор кодека : V_MPEG4/ISO/AVC
Продолжительность : 46 м. 21 с.
Битрейт : 5 000 Кбит/сек
Ширина : 1 920 пикселей
Высота : 1 080 пикселей
Соотношение сторон : 16:9
Режим частоты кадров : Постоянный
Частота кадров : 25,000 кадров/сек
Цветовое пространство : YUV
Субдискретизация насыщенности : 4:2:0
Битовая глубина : 8 бит
Тип развёртки : Прогрессивная
Бит/(Пиксели*Кадры) : 0.096
Размер потока : 1,57 Гбайт (88%)
Библиотека кодирования : x264 core 161
Настройки программы : cabac=1 / ref=2 / deblock=1:0:0 / analyse=0x3:0x113 / me=hex / subme=6 / psy=1 / psy_rd=1.00:0.00 / mixed_ref=1 / me_range=16 / chroma_me=1 / trellis=1 / 8x8dct=1 / cqm=0 / deadzone=21,11 / fast_pskip=1 / chroma_qp_offset=-2 / threads=12 / lookahead_threads=2 / sliced_threads=0 / nr=0 / decimate=1 / interlaced=0 / bluray_compat=0 / constrained_intra=0 / bframes=3 / b_pyramid=2 / b_adapt=1 / b_bias=0 / direct=1 / weightb=1 / open_gop=0 / weightp=1 / keyint=250 / keyint_min=25 / scenecut=40 / intra_refresh=0 / rc_lookahead=30 / rc=abr / mbtree=1 / bitrate=5000 / ratetol=1.0 / qcomp=0.60 / qpmin=0 / qpmax=69 / qpstep=4 / vbv_maxrate=6000 / vbv_bufsize=12000 / nal_hrd=none / filler=0 / ip_ratio=1.40 / aq=1:1.00
Default : Да
Forced : Нет
Цветовой диапазон : Limited
Основные цвета : BT.709
Характеристики трансфера : BT.709
Коэффициенты матрицы : BT.709

Аудио #1
Идентификатор : 2
Формат : AC-3
Формат/Информация : Audio Coding 3
Коммерческое название : Dolby Digital
Идентификатор кодека : A_AC3
Продолжительность : 46 м. 21 с.
Вид битрейта : Постоянный
Битрейт : 256 Кбит/сек
Каналы : 2 канала
Channel layout : L R
Частота : 48,0 КГц
Частота кадров : 31,250 кадров/сек (1536 SPF)
Метод сжатия : С потерями
Задержка видео : -80 мс.
Размер потока : 84,9 Мбайт (5%)
Заголовок : [Original | 2.0 AC-3 Audio]
Язык : Russian
Service kind : Complete Main
Default : Да
Forced : Нет

Аудио #2
Идентификатор : 3
Формат : AC-3
Формат/Информация : Audio Coding 3
Коммерческое название : Dolby Digital
Идентификатор кодека : A_AC3
Продолжительность : 46 м. 21 с.
Вид битрейта : Постоянный
Битрейт : 384 Кбит/сек
Каналы : 6 каналов
Channel layout : L R C LFE Ls Rs
Частота : 48,0 КГц
Частота кадров : 31,250 кадров/сек (1536 SPF)
Метод сжатия : С потерями
Задержка видео : -80 мс.
Размер потока : 127 Мбайт (7%)
Заголовок : [Original | 5.1 AC-3 Audio]
Язык : Russian
Service kind : Complete Main
Default : Нет
Forced : Нет

Текст
Идентификатор : 4
Формат : UTF-8
Идентификатор кодека : S_TEXT/UTF8
Идентификатор кодека/Информация : UTF-8 Plain Text
Продолжительность : 44 м. 13 с.
Битрейт : 78 бит/сек
Частота кадров : 0,183 кадр/сек
Count of elements : 486
Размер потока : 25,5 Кбайт (0%)
Заголовок : [SDH]
Язык : Russian
Default : Нет
Forced : Нет

Внимание! Раздача ведётся путём добавления новых серий; при каждом добавлении создаётся новый торрент.
Чтобы начать докачку новой серии, пользователям необходимо сделать следующее:
1. Остановить скачивание;
2. Удалить старый торрент у себя из клиента (старые серии удалять не надо);
3. Скачать новый торрент и запустить его у себя в клиенте вместо старого, при этом указать клиенту путь в старую папку куда и должно происходить скачивание новых серий. Ваш клиент при этом должен произвести хеширование (проверку) старой папки и будет докачивать только те серии, которых у вас ещё нет. Старые серии при этом не удаляются, а продолжают раздаваться! Eсли вы уже удалили старые серии, то предотвратить повторную закачку старых серий можно, отжав галочку в соответствующих местах при запуске нового торрента.




Скачать Жить жизнь через торрент https://i121.fastpic.org/big/2023/0408/fb/743b2789382740701f38a9f76dad9efb.jpg Скачать, смотреть онлайн Жить жизнь бесплатно в хорошем качестве Описание: 30-летняя Аня — образованная и яркая девушка. У нее состоявшаяся карьера маркетолога и большой круг друзей. Трагическая смерть ... 9.2 10 11
Торрент: Зарегистрирован [2023-05-25 14:51] · скачан: 59 раз
Статус: √ проверено
Размер: 13.71 GB
Как cкачать? Как скачать Жить жизнь через торрент | UTorrent

% Раздел Тема Автор DL S | L
Наши сериалы [ 4.92 GB ] Жить жизнь / Сезон: 1 / Серии: 1-8 из 8 | | WEBRip-AVC bober100 Скачать
14 | 10
Наши сериалы [ 5.77 GB ] Жить жизнь / Сезон: 1 / Серии: 1-8 из 8 | | WEBRip bober100 Скачать
11 | 2

28-11-2019 20:33  


Отключить вcю реклaмy на сайте, в т.ч. и в плеере онлайн просмотра!

    Дорогой пользователь! Огромная просьба, поблагодарите релизера, оцените раздачу и оставьте свои комментарий, если Вы скачали Жить жизнь через торрент бесплатно!!
    Комментировать посты могут только пользователи прошедшие не сложную регистрацию
    Показать сообщения:    


    Жить жизнь через торрент
    Скачать бесплатно Жить жизнь
    Жить жизнь скачать торрент
    Жить жизнь смотреть онлайн
    Cкачать фильм Жить жизнь бесплатно
    Жить жизнь скачать торрент в хорошем качестве
    Жить жизнь смотреть онлайн бесплатно в хорошем качестве
    Вы не можете начинать темы
    Вы не можете отвечать на сообщения
    Вы не можете редактировать свои сообщения
    Вы не можете удалять свои сообщения
    Вы не можете голосовать в опросах
    Вы не можете прикреплять файлы к сообщениям
    Вы можете скачивать файлы