Аватар: Путь воды

Лицензия

Сансара

1 сезон

скачать смотреть онлайн John Wick Chapter 4

MVO

Крик 6

Дубляж

13 клиническая

3 сезон

Восстание зловещих мертвецов

Дубляж

Одни из нас

Дубляж

Dead Island 2 Gold

Gold

Deluxe

Deluxe

pack

Рекомендуем

ВАЖНО

ВАЖНО

30

Repack

The Lord of the Rings: Gollum

Лицензия

jed

RePack

nioh2

RePack

RDR2

RePack

NEED FOR SPEED™ PAYBACK

RePack

скачать торрент

Кинопоиск HD

Острые козырьки 6 сезон

6 сезон

FAR CRY 6

RePack

скачать торрент

Лицензия

скачать торрент

MVO

1

1 сезон

скачать торрент

1 сезон

скачать торрент

Лицензия

  

Спасти единственного сына / Сезон: 1 / Серии: 1-4 из 6 (Николай Хомерики) [2023, Драма, триллер, WEBRip]

Спасти единственного сына через торрент piratbit.org

Раздают: 5 [ 19 KB/s ] Качают: 4 [ 0 KB/s ]
Размер: 2.69 GB | Добавлен: 5 д. назад | Торрент скачан:12 раз
Смотреть онлайн | Скачать | Поддержите нас   

12-05-2023 00:40 Спасти единственного сына Скачать торрент  

Спасти единственного сына
Год выпуска: 2023
Страна: Россия
Производство: МТС Медиа, Всемирные Русские Студии, Телекомпания НТВ
Жанр: Драма, триллер
Продолжительность: ~ 00:50:00 серия
Перевод: Не требуется
Субтитры: отсутствуют

Режиссер: Николай Хомерики

rating

В ролях: Анна Ардова, Алексей Серебряков, Валерий Степанов, Нино Нинидзе, Дмитрий Чеботарёв, Михаил Евланов, Эльшан Алескеров, Дмитрий Поднозов, Александр Кудренко, Владимир Капустин, Зарастин Холбаш, Рамиль Сабитов, Михаил Разумовский, Джавахир Закиров, Мгер Закарян, лия Сорокина, Николай Амосов, Полина Северная, Денис Денисов, Александр Ганелин, Полина Суворова, Алексей Чернышев, Максим Дромашко, Дмитрий Овчинников, Екатерина Семина, Грант Каграманян, Сейдулла Молдаханов, Наталья Батрак, Залим Мирзоев

Описание: Врач Лика Булатова узнает, что ее сын Василий пропал во время отдыха в Греции. Следователи ФСБ подозревают, что Василий присоединился к сирийским боевикам. Лика находит и просит о помощи биологического отца Василия Павла. Вместе они отправляются в чужую страну, где ведут опасные поиски, попадают в зону боевых действий и каждый день они смертельно рискуют, обретая новый смысл жизни.

Качество: WEBRip
Формат: AVI

Видео: XviD, 720x304, ~ 1650 Кбит/с, 0.299 bit/pixel, 25 Кадр/с
Аудио: 48.0 kHz, AC3 Dolby Digital, 2/0 (L,R) ch, ~ 192 kbps
скриншот  скриншот  скриншот  скриншот  скриншот  скриншот  

Общее
Полное имя : C:\Users\Admin\Desktop\Spasti.edinstvennogo.syna.S01.WEB-DLRip.25Kuzmich\Spasti.edinstvennogo.syna.s01e01.WEB-DLRip.25Kuzmich.avi
Формат : AVI
Формат/Информация : Audio Video Interleave
Размер файла : 667 Мбайт
Продолжительность : 50 м. 40 с.
Общий поток : 1 840 Кбит/сек
Программа кодирования : VirtualDubMod 1.5.10.3 | www.virtualdub-fr.org || (build 2550/release)
Библиотека кодирования : VirtualDubMod build 2550/release

Видео
Идентификатор : 0
Формат : MPEG-4 Visual
Профиль формата : Advanced [email protected]
Настройки формата : BVOP1
Параметр BVOP формата : 1
Параметр QPel формата : Нет
Параметр GMC формата : Без точки перехода
Параметр матрицы формата : Default (MPEG)
Идентификатор кодека : XVID
Идентификатор кодека/Подсказка : XviD
Продолжительность : 50 м. 40 с.
Битрейт : 1 638 Кбит/сек
Ширина : 720 пикселей
Высота : 304 пикселя
Соотношение сторон : 2,35:1
Частота кадров : 25,000 кадров/сек
Цветовое пространство : YUV
Субдискретизация насыщенности : 4:2:0
Битовая глубина : 8 бит
Тип развёртки : Прогрессивная
Метод сжатия : С потерями
Бит/(Пиксели*Кадры) : 0.299
Размер потока : 594 Мбайт (89%)
Библиотека кодирования : XviD 73

Аудио
Идентификатор : 1
Формат : AC-3
Формат/Информация : Audio Coding 3
Коммерческое название : Dolby Digital
Идентификатор кодека : 2000
Продолжительность : 50 м. 40 с.
Вид битрейта : Постоянный
Битрейт : 192 Кбит/сек
Каналы : 2 канала
Channel layout : L R
Частота : 48,0 КГц
Частота кадров : 31,250 кадров/сек (1536 SPF)
Метод сжатия : С потерями
Размер потока : 69,6 Мбайт (10%)
Выравнивание : Разделение по промежуткам
Продолжительность промежутка : 40 мс. (1,00 видеокадр)
Время предзагрузки промежутка : 500 мс.
Service kind : Complete Main

Внимание! Раздача ведётся путём добавления новых серий; при каждом добавлении создаётся новый торрент.
Чтобы начать докачку новой серии, пользователям необходимо сделать следующее:
1. Остановить скачивание;
2. Удалить старый торрент у себя из клиента (старые серии удалять не надо);
3. Скачать новый торрент и запустить его у себя в клиенте вместо старого, при этом указать клиенту путь в старую папку куда и должно происходить скачивание новых серий. Ваш клиент при этом должен произвести хеширование (проверку) старой папки и будет докачивать только те серии, которых у вас ещё нет. Старые серии при этом не удаляются, а продолжают раздаваться! Eсли вы уже удалили старые серии, то предотвратить повторную закачку старых серий можно, отжав галочку в соответствующих местах при запуске нового торрента.




Скачать Спасти единственного сына через торрент https://i121.fastpic.org/big/2023/0511/56/d4c231d127a218c936b5d9a21876ff56.jpg Скачать, смотреть онлайн Спасти единственного сына бесплатно в хорошем качестве Описание: Врач Лика Булатова узнает, что ее сын Василий пропал во время отдыха в Греции. Следователи ФСБ подозревают, что Василий ... 7.4 10 7
Торрент: Зарегистрирован [2023-05-26 03:19] · скачан: 12 раз
Статус: √ проверено
Размер: 2.69 GB
Как cкачать? Как скачать Спасти единственного сына через торрент | UTorrent

% Раздел Тема Автор DL S | L
Наши сериалы [ 2.61 GB ] Спасти единственного сына / Сезон: 1 / Серии: 1-4 из 6 | | WEBRip-AVC bober100 Скачать
6 | 1
Наши сериалы [ 9.15 GB ] Спасти единственного сына / Сезон: 1 / Серии: 1-4 из 6 | | 1080p bober100 Скачать
3 | 1

28-11-2019 20:33  


Отключить вcю реклaмy на сайте, в т.ч. и в плеере онлайн просмотра!

    Дорогой пользователь! Огромная просьба, поблагодарите релизера, оцените раздачу и оставьте свои комментарий, если Вы скачали Спасти единственного сына через торрент бесплатно!!
    Комментировать посты могут только пользователи прошедшие не сложную регистрацию
    Показать сообщения:    


    Спасти единственного сына через торрент
    Скачать бесплатно Спасти единственного сына
    Спасти единственного сына скачать торрент
    Спасти единственного сына смотреть онлайн
    Cкачать фильм Спасти единственного сына бесплатно
    Спасти единственного сына скачать торрент в хорошем качестве
    Спасти единственного сына смотреть онлайн бесплатно в хорошем качестве
    Вы не можете начинать темы
    Вы не можете отвечать на сообщения
    Вы не можете редактировать свои сообщения
    Вы не можете удалять свои сообщения
    Вы не можете голосовать в опросах
    Вы не можете прикреплять файлы к сообщениям
    Вы можете скачивать файлы