Аватар: Путь воды

Лицензия

В те дни

1 сезон

скачать смотреть онлайн John Wick Chapter 4

MVO

Крик 6

Дубляж

13 клиническая

3 сезон

Восстание зловещих мертвецов

Дубляж

Одни из нас

Дубляж

Dead Island 2 Gold

Gold

Deluxe RUS

Deluxe RUS

pack

Рекомендуем

ВАЖНО

ВАЖНО

30

Repack

The Lord of the Rings: Gollum

Лицензия

jed

RePack

nioh2

RePack

RDR2

RePack

NEED FOR SPEED™ PAYBACK

RePack

скачать торрент

Кинопоиск HD

Острые козырьки 6 сезон

6 сезон

FAR CRY 6

RePack

скачать торрент

Лицензия

скачать торрент

MVO

1

1 сезон

скачать торрент

1 сезон

скачать торрент

Лицензия

  

Проклятие. Посвящение / Consecration (Кристофер Смит) [2022, Ужасы, детектив, BDRip 1080p] Дубляж [Кириллица]

Проклятие. Посвящение через торрент piratbit.org

Раздают: 2 [ 0 KB/s ]
Размер: 7.66 GB | Добавлен: 15 д. назад | Торрент скачан:35 раз
Смотреть онлайн | Скачать | Поддержите нас   

19-05-2023 02:34 Проклятие. Посвящение Скачать торрент  

Проклятие. Посвящение
Consecration

Год выпуска: 2022
Страна: Великобритания, США
Выпущено: AGC Studios, Bigscope Films, Moonriver Content
Жанр: Ужасы, детектив
Продолжительность: 01:31:04
Перевод: Дублированный | Кириллица
Субтитры: Русские (Full), английские

Режиссер: Кристофер Смит

rating

В ролях: Джена Мелоун, Дэнни Хьюстон, Иэн Пири, Торен Фергюсон, Дженет Сьюзман, Стеффан Сеннидд, Эйлид Фишер, Виктория Донован, Анджела Уайт, Шарлотта Палмер

Описание: Офтальмолог Грейс получает страшное известие: её брат-священник покончил с собой. Убитая горем девушка отправляется в отдаленный монастырь в шотландской глубинке, где произошла трагедия. Грейс не верит в версию церкви о самоубийстве и, чем больше пытается разузнать о произошедшем, тем больше укрепляется во мнении, что монахини и представитель Ватикана что-то скрывают.

Качество: BDRip 1080p
Формат: MKV

Видео: MPEG-4 AVC, 1920x804, 10.5 Mbit/s, 23.976 fps
Аудио #01: 48 kHz, AC3, 5.1, 448 Kbps | Дублированный | Кириллица | RUS |
Аудио #02: 48 kHz, E-AC3, 5.1, 448 Kbps | Дублированный | Кириллица | RUS |
Аудио #03: 48 kHz, AC3, 5.1, 640 Kbps | Оригинал | ENG |
скриншот  скриншот  скриншот  скриншот  скриншот  скриншот  

General
Unique ID : 123448064686036399783716624032031117820 (0x5CDF3B80E5695F8A90534A05ECF511FC)
Complete name : D:VideoConsecration.2023.BDRip.1080p.seleZen.mkv
Format : Matroska
Format version : Version 4
File size : 7.66 GiB
Duration : 1 h 31 min
Overall bit rate : 12.0 Mb/s
Frame rate : 23.976 FPS
Movie name : Consecration 2023 from seleZen
Encoded date : 2023-05-24 00:24:11 UTC
Writing application : mkvmerge v59.0.0 ('Shining Star') 64-bit
Writing library : libebml v1.4.2 + libmatroska v1.6.4

Video
ID : 1
Format : AVC
Format/Info : Advanced Video Codec
Format profile : [email protected]
Format settings : CABAC / 5 Ref Frames
Format settings, CABAC : Yes
Format settings, Reference : 5 frames
Codec ID : V_MPEG4/ISO/AVC
Duration : 1 h 31 min
Bit rate : 10.5 Mb/s
Width : 1 920 pixels
Height : 804 pixels
Display aspect ratio : 2.40:1
Frame rate mode : Constant
Frame rate : 23.976 (24000/1001) FPS
Color space : YUV
Chroma subsampling : 4:2:0
Bit depth : 8 bits
Scan type : Progressive
Bits/(Pixel*Frame) : 0.284
Stream size : 6.68 GiB (87%)
Writing library : x264 core 164 r3107+58M ae98796 t_mod_New [(8 & 10)-seleZen X86_64]
Encoding settings : cabac=1 / ref=5 / deblock=1:-2:-2 / analyse=0x3:0x133 / me=umh / subme=10 / psy=1 / fade_compensate=0.00 / psy_rd=1.02:0.02 / mixed_ref=1 / me_range=32 / chroma_me=1 / trellis=2 / 8x8dct=1 / cqm=0 / deadzone=21,11 / fast_pskip=0 / chroma_qp_offset=-3 / threads=25 / lookahead_threads=4 / sliced_threads=0 / nr=0 / decimate=0 / interlaced=0 / bluray_compat=0 / constrained_intra=0 / fgo=0 / bframes=8 / b_pyramid=2 / b_adapt=2 / b_bias=0 / direct=3 / weightb=1 / open_gop=0 / weightp=2 / keyint=240 / keyint_min=23 / scenecut=40 / intra_refresh=0 / rc_lookahead=60 / rc=2pass / mbtree=0 / bitrate=10500 / ratetol=1.0 / qcomp=0.60 / qpmin=0:0:0 / qpmax=51:51:51 / qpstep=4 / cplxblur=20.0 / qblur=0.5 / vbv_maxrate=50000 / vbv_bufsize=62500 / nal_hrd=none / filler=0 / ip_ratio=1.40 / pb_ratio=1.30 / aq=3:0.80 / aq-sensitivity=10.00 / aq-factor=1.00:1.00:1.00:1.00 / aq2=0 / aq3=0
Language : English
Default : Yes
Forced : No

Audio #1
ID : 2
Format : AC-3
Format/Info : Audio Coding 3
Commercial name : Dolby Digital
Codec ID : A_AC3
Duration : 1 h 31 min
Bit rate mode : Constant
Bit rate : 448 kb/s
Channel(s) : 6 channels
Channel layout : L R C LFE Ls Rs
Sampling rate : 48.0 kHz
Frame rate : 31.250 FPS (1536 SPF)
Compression mode : Lossy
Stream size : 292 MiB (4%)
Title : Дубляж
Language : Russian
Service kind : Complete Main
Default : Yes
Forced : Yes

Audio #2
ID : 3
Format : E-AC-3
Format/Info : Enhanced AC-3
Commercial name : Dolby Digital Plus
Codec ID : A_EAC3
Duration : 1 h 31 min
Bit rate mode : Constant
Bit rate : 448 kb/s
Channel(s) : 6 channels
Channel layout : L R C LFE Ls Rs
Sampling rate : 48.0 kHz
Frame rate : 31.250 FPS (1536 SPF)
Compression mode : Lossy
Stream size : 292 MiB (4%)
Title : Дубляж
Language : Russian
Service kind : Complete Main
Default : No
Forced : No

Audio #3
ID : 4
Format : AC-3
Format/Info : Audio Coding 3
Commercial name : Dolby Digital
Codec ID : A_AC3
Duration : 1 h 31 min
Bit rate mode : Constant
Bit rate : 640 kb/s
Channel(s) : 6 channels
Channel layout : L R C LFE Ls Rs
Sampling rate : 48.0 kHz
Frame rate : 31.250 FPS (1536 SPF)
Compression mode : Lossy
Stream size : 417 MiB (5%)
Title : Original
Language : English
Service kind : Complete Main
Default : No
Forced : No

Text #1
ID : 5
Format : UTF-8
Codec ID : S_TEXT/UTF8
Codec ID/Info : UTF-8 Plain Text
Duration : 1 h 24 min
Bit rate : 58 b/s
Frame rate : 0.168 FPS
Count of elements : 849
Stream size : 36.3 KiB (0%)
Title : Full
Language : Russian
Default : No
Forced : No

Text #2
ID : 6
Format : UTF-8
Codec ID : S_TEXT/UTF8
Codec ID/Info : UTF-8 Plain Text
Duration : 1 h 22 min
Bit rate : 37 b/s
Frame rate : 0.165 FPS
Count of elements : 818
Stream size : 22.7 KiB (0%)
Title : Full
Language : English
Default : No
Forced : No

Menu
00:00:00.000 : en:Chapter 01
00:11:48.041 : en:Chapter 02
00:23:26.447 : en:Chapter 03
00:36:45.537 : en:Chapter 04
00:46:05.680 : en:Chapter 05
00:57:22.230 : en:Chapter 06
01:14:30.549 : en:Chapter 07
01:24:19.388 : en:Chapter 08





Скачать Проклятие. Посвящение через торрент https://i121.fastpic.org/big/2023/0524/4f/ace5e311960659b5e00b7b24b655924f.jpg Скачать, смотреть онлайн Проклятие. Посвящение бесплатно в хорошем качестве Описание: Офтальмолог Грейс получает страшное известие: её брат-священник покончил с собой. Убитая горем девушка отправляется в отдаленный ... 9.9 10 9
Торрент: Зарегистрирован [2023-05-24 00:38] · скачан: 35 раз
Статус: √ проверено
Размер: 7.66 GB
Как cкачать? Как скачать Проклятие. Посвящение через торрент | UTorrent

% Раздел Тема Автор DL S | L
Фильмы (Blu-ray, BD-Remux, HDDVD) [ 18.35 GB ] Проклятие. Посвящение / Consecration | Кириллица | BD Remux 1080p bober100 Скачать
1 | 0
Фильмы [HD 720p, 1080p] (Хороший звук DUB, MVO) [ 4.16 GB ] Проклятие. Посвящение / Consecration | Кириллица | 720p bober100 Скачать
3 | 0
Фильмы 2022-2023 [DVDrip, WEB-DLRip, HDrip] (DUB, MVO) [ 1.46 GB ] Проклятие. Посвящение / Consecration | Кириллица | DLRip bober100 Скачать
9 | 0

28-11-2019 20:33  


Отключить вcю реклaмy на сайте, в т.ч. и в плеере онлайн просмотра!

    Дорогой пользователь! Огромная просьба, поблагодарите релизера, оцените раздачу и оставьте свои комментарий, если Вы скачали Проклятие. Посвящение через торрент бесплатно!!
    Комментировать посты могут только пользователи прошедшие не сложную регистрацию
    Показать сообщения:    


    Проклятие. Посвящение через торрент
    Скачать бесплатно Проклятие. Посвящение
    Проклятие. Посвящение скачать торрент
    Проклятие. Посвящение смотреть онлайн
    Cкачать фильм Проклятие. Посвящение бесплатно
    Проклятие. Посвящение скачать торрент в хорошем качестве
    Проклятие. Посвящение смотреть онлайн бесплатно в хорошем качестве
    Вы не можете начинать темы
    Вы не можете отвечать на сообщения
    Вы не можете редактировать свои сообщения
    Вы не можете удалять свои сообщения
    Вы не можете голосовать в опросах
    Вы не можете прикреплять файлы к сообщениям
    Вы можете скачивать файлы