смотреть онлайн / скачать торрент Слово пацана. Кровь на асфальте

1 сезон

смотреть онлайн / скачать торрент Убийца

Дубляж

смотреть онлайн / скачать торрент Монарх: Наследие монстров

1 сезон

Активация Assassins Creed Mirage

Deluxe

Активация Mortal Kombat 1 Premium Edition

Premium

Активация Atomic Heart - Annihilation Instinct

ВСЕ DLC

смотреть онлайн / скачать торрент Создатель

Дубляж

смотреть онлайн / скачать торрент Цикады

1 сезон

смотреть онлайн / скачать торрент Фарго / Сезон: 5

5 сезон

смотреть онлайн / скачать торрент Убийцы цветочной луны

Дубляж

Рекомендуем

Рекомендуем

ВАЖНО

ВАЖНО

скачать торрент Lords of the Fallen

Steam-Rip

ARMORED CORE™ VI FIRES OF RUBICON™

Steam-Rip

jed

RePack

PAYDAY 3

Пиратка

RDR2

RePack

Hogwarts Legacy

Steam-Rip

смотреть онлайн / скачать торрент Захваченный

Невафильм

смотреть онлайн / скачать торрент Острые козырьки 6 сезон

6 сезон

FAR CRY 6

RePack

скачать торрент Dead Island™ 2

EGS-Rip

скачать торрент The Quarry

Steam-Rip

  

Трепачи / Сезон: 1 / Серии: 1-10 из 10 (Симон Багдасарян) [2023, Комедия, WEBRip 1080p]

Трепачи через торрент piratbit.org

Раздают: 8 [ 23 KB/s ] Качают: 2 [ 0 KB/s ]
Размер: 8.14 GB | Добавлен: 1 мес. 20 д. назад | Торрент скачан:178 раз
Alan Wake 2 Deluxe активация

2023-09-23 05:43 Трепачи Скачать торрент  

Трепачи
Год выпуска: 2023
Страна: Россия
Производство: К.Б.А. / Кинокомпания братьев Андреасян, Light Studio
Жанр: Комедия
Продолжительность: ~ 00:53:00 серия
Перевод: Не требуется
Субтитры: отсутствуют

Режиссер: Симон Багдасарян

рейтинг кинопоиск рейтинг imdb

В ролях: Глеб Калюжный, Юрий Стоянов, Денис Давыдов, Давид Алавердян, Андрей Кузнецов, Ким Сизов, Оскар Кучера, Алексей Кирсанов, Михаил Евланов, Роза Хайруллина, Зепюр Прилучная-Брутян, Юлия Ильина, Александр Якин, Сергей Балашов, Ольга Смирнова, Семен Литвинов, Софья Донианц, Марк Андреасян

Описание: Даня приезжает из провинции в Москву. Он мечтает покорить столицу и стать популярным стендапером. За душой у молодого человека ничего кроме амбиций, а жить где-то надо уже сейчас, и он снимает комнату у Вячеслава Соколова — ворчливого, обиженного жизнью старика. И хотя отношения между Даней и Вячеславом нельзя назвать радужными, общего у них, как выясняется, больше, чем можно предположить. По странному стечению обстоятельств в прошлом Соколов — популярный советский сатирик.

Качество: WEBRip 1080p
Формат: MKV

Видео: MPEG-4 AVC, 1920x1072, ~ 4500 Кбит/с, 0.085 bit/pixel, 25 Кадр/с
Аудио: 48.0 kHz, AC3 Dolby Digital, 2/0 (L,R) ch, ~ 192 kbps
скриншот  скриншот  скриншот  скриншот  скриншот  скриншот  

Общее
Уникальный идентификатор : 199272538691873090112598045982249170920 (0x95EA7EB4216C7DA7F67C0EEB3C4FB7E8)
Полное имя : D:\Trepachi.S01.2023.WEBRip.1080p\Trepachi.S01.E01.2023.WEBRip.1080p.mkv
Формат : Matroska
Версия формата : Version 4
Размер файла : 940 Мбайт
Продолжительность : 28 м. 41 с.
Режим общего битрейта : Переменный
Общий поток : 4 582 Кбит/сек
Название фильма : Trepachi.S01.E01.2023.WEBRip.1080p
Дата кодирования : UTC 2023-09-20 21:03:21
Программа кодирования : mkvmerge v79.0 ('Funeral Pyres') 64-bit
Библиотека кодирования : libebml v1.4.4 + libmatroska v1.7.1
Attachments : poster.jpg

Видео
Идентификатор : 1
Формат : AVC
Формат/Информация : Advanced Video Codec
Профиль формата : [email protected]
Настройки формата : CABAC / 2 Ref Frames
Параметр CABAC формата : Да
Параметр RefFrames формата : 2 кадра
Идентификатор кодека : V_MPEG4/ISO/AVC
Продолжительность : 28 м. 40 с.
Вид битрейта : Переменный
Битрейт : 4 388 Кбит/сек
Максимальный битрейт : 4 500 Кбит/сек
Ширина : 1 920 пикселей
Высота : 1 072 пикселя
Соотношение сторон : 16:9
Режим частоты кадров : Постоянный
Частота кадров : 25,000 кадров/сек
Цветовое пространство : YUV
Субдискретизация насыщенности : 4:2:0
Битовая глубина : 8 бит
Тип развёртки : Прогрессивная
Бит/(Пиксели*Кадры) : 0.085
Размер потока : 900 Мбайт (96%)
Default : Да
Forced : Нет
Цветовой диапазон : Limited
Основные цвета : BT.709
Характеристики трансфера : BT.709
Коэффициенты матрицы : BT.709

Аудио
Идентификатор : 2
Формат : AC-3
Формат/Информация : Audio Coding 3
Коммерческое название : Dolby Digital
Идентификатор кодека : A_AC3
Продолжительность : 28 м. 40 с.
Вид битрейта : Постоянный
Битрейт : 192 Кбит/сек
Каналы : 2 канала
Channel layout : L R
Частота : 48,0 КГц
Частота кадров : 31,250 кадров/сек (1536 SPF)
Метод сжатия : С потерями
Задержка видео : -120 мс.
Размер потока : 39,4 Мбайт (4%)
Заголовок : [Original | 2.0 AC-3 Audio]
Язык : Russian
Service kind : Complete Main
Default : Да
Forced : Нет

Внимание! Раздача ведётся путём добавления новых серий; при каждом добавлении создаётся новый торрент.
Чтобы начать докачку новой серии, пользователям необходимо сделать следующее:
1. Остановить скачивание;
2. Удалить старый торрент у себя из клиента (старые серии удалять не надо);
3. Скачать новый торрент и запустить его у себя в клиенте вместо старого, при этом указать клиенту путь в старую папку куда и должно происходить скачивание новых серий. Ваш клиент при этом должен произвести хеширование (проверку) старой папки и будет докачивать только те серии, которых у вас ещё нет. Старые серии при этом не удаляются, а продолжают раздаваться! Eсли вы уже удалили старые серии, то предотвратить повторную закачку старых серий можно, отжав галочку в соответствующих местах при запуске нового торрента.


Смотрeть онлайн Фильм Трепачи в хорошем HD 1080 качестве



Описание: Даня приезжает из провинции в Москву. Он мечтает покорить столицу и стать популярным стендапером. За душой у молодого человека ... https://i122.fastpic.org/big/2023/0921/23/39540effce4b32270b11f0f452dca623.jpg https://i122.fastpic.org/big/2023/0921/23/39540effce4b32270b11f0f452dca623.jpg 2023-09-23 05:43 Cмотреть онлайн Трепачи true ru Скачать Трепачи через торрент, смотреть онлайн Трепачи https://i122.fastpic.org/big/2023/0921/23/39540effce4b32270b11f0f452dca623.jpg Скачать торрент Трепачи , смотреть онлайн Трепачи , бесплатно в хорошем качестве Описание: Даня приезжает из провинции в Москву. Он мечтает покорить столицу и стать популярным стендапером. За душой у молодого человека ... 9.5 10 20
Торрент: Зарегистрирован [2023-10-19 15:31] · скачан: 178 раз
Статус: √ проверено
Размер: 8.14 GB
Как cкачать? Как скачать Трепачи через торрент | UTorrent | Поделиться в телеграм

28-11-2019 20:33  


Отключить вcю реклaмy на сайте!

2023-10-20 08:30 Трепачи Скачать торрент  

Стоянов красавчик, а на фоне сериала этого просто Аполлон!



    Дорогой пользователь! Огромная просьба, поблагодарите релизера, оцените раздачу и оставьте свои комментарий, если Вы скачали Трепачи через торрент бесплатно!!
    Комментировать посты могут только пользователи прошедшие не сложную регистрацию
    Показать сообщения:    


    смотреть онлайн Трепачи
    Трепачи через торрент
    Скачать бесплатно Трепачи
    Трепачи скачать торрент
    Трепачи смотреть онлайн
    Cкачать фильм Трепачи бесплатно
    Трепачи скачать торрент в хорошем качестве
    Трепачи смотреть онлайн бесплатно в хорошем качестве
    Вы не можете начинать темы
    Вы не можете отвечать на сообщения
    Вы не можете редактировать свои сообщения
    Вы не можете удалять свои сообщения
    Вы не можете голосовать в опросах
    Вы не можете прикреплять файлы к сообщениям
    Вы можете скачивать файлы