смотреть онлайн / скачать торрент Оппенгеймер

MVO

смотреть онлайн / скачать торрент Убийца

Дубляж

смотреть онлайн / скачать торрент Поколение «Ви»

1 сезон

Активация Call of Duty®: Modern Warfare® III

Deluxe

Активация Avatar Frontiers of Pandora ULTIMATE

Premium

Активация Atomic Heart - Annihilation Instinct

ВСЕ DLC

смотреть онлайн / скачать торрент Телохранитель на фрилансе

Дубляж

смотреть онлайн / скачать торрент Звук свободы

MVO

смотреть онлайн / скачать торрент Ведьмак / The Witcher / Сезон: 3

3 сезон

смотреть онлайн / скачать торрент Стражи Галактики. Часть 3

Дубляж

Рекомендуем

Рекомендуем

ВАЖНО

ВАЖНО

скачать торрент Lords of the Fallen

Steam-Rip

ARMORED CORE™ VI FIRES OF RUBICON™

Steam-Rip

jed

RePack

PAYDAY 3

Пиратка

RDR2

RePack

Hogwarts Legacy

Steam-Rip

смотреть онлайн / скачать торрент Захваченный

Невафильм

смотреть онлайн / скачать торрент Острые козырьки 6 сезон

6 сезон

FAR CRY 6

RePack

скачать торрент Dead Island™ 2

EGS-Rip

скачать торрент The Quarry

Steam-Rip

  

Создатель / The Creator (Гарет Эдвардс) [2023, Фантастика, боевик, триллер, драма, приключения, WEB-DL 1080p] Дубляж (rus, ukr) [MovieDalen]

Создатель через торрент piratbit.org

Раздают: 14 [ 180 KB/s ]
Размер: 9.16 GB | Добавлен: 16 д. назад | Торрент скачан:369 раз
Alan Wake 2 Deluxe активация

2023-11-14 04:52 Создатель Скачать торрент  

Создатель
The Creator

Год выпуска: 2023
Страна: США
Выпущено: 20th Century Studios, New Regency Productions, Entertainment One
Жанр: Фантастика, боевик, триллер, драма, приключения
Продолжительность: 02:15:47
Перевод: Дублированный (официальный) | MovieDalen
Субтитры: Русские (Full), украинские (Forced, Full), английские (Forced, SDH, Full)

Режиссер: Гарет Эдвардс

рейтинг кинопоиск рейтинг imdb

В ролях: Джон Дэвид Вашингтон, Мэделин Юна Войлс, Джемма Чан, Эллисон Дженни, Кэн Ватанабэ, Стерджил Симпсон, Амер Чадха-Пател, Марк Менчака, Робби Танн, Ральф Айнесон

Описание: На фоне войны будущего между человечеством и силами искусственного интеллекта Джошуа, закаленный в боях и бывший оперативный агент, переживает исчезновение жены, и теперь ему предстоит найти и уничтожить Создателя — неуловимого архитектора, создавшего искусственный интеллект и оружие, способное положить конец всему людскому роду.

Качество: WEB-DL 1080p
Формат: MKV

Видео: MPEG-4 AVC, 8451 Кбит/с, 1920x1080, 24.000 fps
Аудио #1: 48 kHz, AC3, 2.0, 192 Kbps | Дублированный | RU
Аудио #2: 48 kHz, AC3, 5.1, 384 Kbps | Дублированный | UA
Аудио #3: E-AC3, 5.1, 640 kbps | EN
скриншот  скриншот  скриншот  скриншот  

General
Unique ID : 93119590848748252250200850100289269585 (0x460E2E4BB12AE3B90B8106BB29FFEF51)
Complete name : The.Creator.2023.1080p.AMZN.WEB-DL.DDP5.1.H.264-LessConfusingThanTenet-MULTi-RGB.mkv
Format : Matroska
Format version : Version 4
File size : 9.16 GiB
Duration : 2 h 15 min
Overall bit rate : 9 660 kb/s
Movie name : RGB
Encoded date : UTC 2023-11-13 22:45:26
Writing application : mkvmerge v37.0.0 ('Leave It') 64-bit
Writing library : libebml v1.3.9 + libmatroska v1.5.2

Video
ID : 1
Format : AVC
Format/Info : Advanced Video Codec
Format profile : High@L4
Format settings : CABAC / 4 Ref Frames
Format settings, CABAC : Yes
Format settings, Reference frames : 4 frames
Codec ID : V_MPEG4/ISO/AVC
Duration : 2 h 15 min
Bit rate mode : Constant
Bit rate : 8 451 kb/s
Nominal bit rate : 10 000 kb/s
Width : 1 920 pixels
Height : 1 080 pixels
Display aspect ratio : 16:9
Frame rate mode : Constant
Frame rate : 24.000 FPS
Color space : YUV
Chroma subsampling : 4:2:0
Bit depth : 8 bits
Scan type : Progressive
Bits/(Pixel*Frame) : 0.170
Stream size : 8.02 GiB (87%)
Title : LessConfusingThanTenet
Language : English
Default : Yes
Forced : No
Color range : Limited
Color primaries : BT.709
Transfer characteristics : BT.709
Matrix coefficients : BT.709

Audio #1
ID : 2
Format : AC-3
Format/Info : Audio Coding 3
Commercial name : Dolby Digital
Codec ID : A_AC3
Duration : 2 h 13 min
Bit rate mode : Constant
Bit rate : 192 kb/s
Channel(s) : 2 channels
Channel layout : L R
Sampling rate : 48.0 kHz
Frame rate : 31.250 FPS (1536 SPF)
Compression mode : Lossy
Stream size : 183 MiB (2%)
Title : Дубляж 2.0 [RGB]
Language : Russian
Service kind : Complete Main
Default : Yes
Forced : No

Audio #2
ID : 3
Format : AC-3
Format/Info : Audio Coding 3
Commercial name : Dolby Digital
Codec ID : A_AC3
Duration : 2 h 13 min
Bit rate mode : Constant
Bit rate : 384 kb/s
Channel(s) : 6 channels
Channel layout : L R C LFE Ls Rs
Sampling rate : 48.0 kHz
Frame rate : 31.250 FPS (1536 SPF)
Compression mode : Lossy
Stream size : 366 MiB (4%)
Title : Дубляж [RGB]
Language : Ukrainian
Service kind : Complete Main
Default : No
Forced : No

Audio #3
ID : 4
Format : E-AC-3
Format/Info : Enhanced AC-3
Commercial name : Dolby Digital Plus
Codec ID : A_EAC3
Duration : 2 h 15 min
Bit rate mode : Constant
Bit rate : 640 kb/s
Channel(s) : 6 channels
Channel layout : L R C LFE Ls Rs
Sampling rate : 48.0 kHz
Frame rate : 31.250 FPS (1536 SPF)
Compression mode : Lossy
Stream size : 622 MiB (7%)
Language : English
Service kind : Complete Main
Default : No
Forced : No

Text #1
ID : 5
Format : UTF-8
Codec ID : S_TEXT/UTF8
Codec ID/Info : UTF-8 Plain Text
Duration : 2 h 2 min
Bit rate : 64 b/s
Count of elements : 1416
Stream size : 57.6 KiB (0%)
Language : Russian
Default : No
Forced : No

Text #2
ID : 6
Format : UTF-8
Codec ID : S_TEXT/UTF8
Codec ID/Info : UTF-8 Plain Text
Duration : 1 h 58 min
Bit rate : 3 b/s
Count of elements : 79
Stream size : 3.29 KiB (0%)
Title : Forced
Language : Ukrainian
Default : No
Forced : Yes

Text #3
ID : 7
Format : UTF-8
Codec ID : S_TEXT/UTF8
Codec ID/Info : UTF-8 Plain Text
Duration : 2 h 12 min
Bit rate : 60 b/s
Count of elements : 1416
Stream size : 58.8 KiB (0%)
Language : Ukrainian
Default : No
Forced : No

Text #4
ID : 8
Format : UTF-8
Codec ID : S_TEXT/UTF8
Codec ID/Info : UTF-8 Plain Text
Duration : 1 h 12 min
Bit rate : 1 b/s
Count of elements : 46
Stream size : 933 Bytes (0%)
Title : Forced
Language : English
Default : No
Forced : Yes

Text #5
ID : 9
Format : UTF-8
Codec ID : S_TEXT/UTF8
Codec ID/Info : UTF-8 Plain Text
Duration : 2 h 1 min
Bit rate : 42 b/s
Count of elements : 1443
Stream size : 37.7 KiB (0%)
Language : English
Default : No
Forced : No

Text #6
ID : 10
Format : UTF-8
Codec ID : S_TEXT/UTF8
Codec ID/Info : UTF-8 Plain Text
Duration : 2 h 11 min
Bit rate : спам b/s
Count of elements : 2158
Stream size : 60.6 KiB (0%)
Title : SDH
Language : English
Default : No
Forced : No



Смотрeть онлайн Фильм Создатель в хорошем HD 1080 качестве



Описание: На фоне войны будущего между человечеством и силами искусственного интеллекта Джошуа, закаленный в боях и бывший оперативный ... https://i122.fastpic.org/big/2023/1114/ad/911a5103cc29ab0c81243015257624ad.jpg https://i122.fastpic.org/big/2023/1114/ad/911a5103cc29ab0c81243015257624ad.jpg 2023-11-14 04:52 Cмотреть онлайн Создатель true ru Скачать Создатель через торрент, смотреть онлайн Создатель https://i122.fastpic.org/big/2023/1114/ad/911a5103cc29ab0c81243015257624ad.jpg Скачать торрент Создатель , смотреть онлайн Создатель , бесплатно в хорошем качестве Описание: На фоне войны будущего между человечеством и силами искусственного интеллекта Джошуа, закаленный в боях и бывший оперативный ... 8.5 10 15
Info! Золотая раздача, скачанное не засчитывается.
Торрент: Зарегистрирован [2023-11-14 04:52] · скачан: 369 раз
Статус: √ проверено
Размер: 9.16 GB
Как cкачать? Как скачать Создатель через торрент | UTorrent | Поделиться в телеграм

% Раздел Тема Автор DL S | L
Фильмы 2022-2023 [DVDrip, WEB-DLRip, HDrip] (DUB, MVO) [ 2.18 GB ] Создатель / The Creator | DUB | DLRip bober100 Скачать
17 | 0
Фильмы (HD 720p, 1080p) (48-60 fps) [ 4.36 GB ] Создатель / The Creator | Дубляж | 1080p, 60 FPS, 10bit slaventi-69 Скачать
16 | 0
Фильмы 2022-2023 [DVDrip, WEB-DLRip, HDrip] (DUB, MVO) [ 2.05 GB ] Создатель / The Creator | DUB | DLRip-AVC bober100 Скачать
14 | 0
Ultra HD (UHD: 2K, 4K, 8K) [ 24.34 GB ] Создатель / The Creator | DUB | 2160p, (Dolby Vision Profile 8 bober100 Скачать
13 | 0
Фильмы (WEB-DL 720p, 1080p) [ 9.44 GB ] Создатель / The Creator | DUB | 1080p bober100 Скачать
26 | 0
Фильмы 2022-2023 [DVDrip, WEB-DLRip, HDrip] (DUB, MVO) [ 1.46 GB ] Создатель / The Creator | DUB | DLRip bober100 Скачать
9 | 0

28-11-2019 20:33  


Отключить вcю реклaмy на сайте!

2023-11-15 16:55 Создатель Скачать торрент  

Сильный фильм. Местами абсурд, дыры , но я не пожалел.



2023-11-16 21:35 Создатель Скачать торрент  

Утопия, но от невообразимого до дикой рельности- недалеко.



    Дорогой пользователь! Огромная просьба, поблагодарите релизера, оцените раздачу и оставьте свои комментарий, если Вы скачали Создатель через торрент бесплатно!!
    Комментировать посты могут только пользователи прошедшие не сложную регистрацию
    Показать сообщения:    


    смотреть онлайн Создатель
    Создатель через торрент
    Скачать бесплатно Создатель
    Создатель скачать торрент
    Создатель смотреть онлайн
    Cкачать фильм Создатель бесплатно
    Создатель скачать торрент в хорошем качестве
    Создатель смотреть онлайн бесплатно в хорошем качестве
    Вы не можете начинать темы
    Вы не можете отвечать на сообщения
    Вы не можете редактировать свои сообщения
    Вы не можете удалять свои сообщения
    Вы не можете голосовать в опросах
    Вы не можете прикреплять файлы к сообщениям
    Вы можете скачивать файлы