смотреть онлайн / скачать торрент Слово пацана. Кровь на асфальте

1 сезон

смотреть онлайн / скачать торрент Убийца

Дубляж

смотреть онлайн / скачать торрент Монарх: Наследие монстров

1 сезон

Активация Call of Duty®: Modern Warfare® III

Deluxe

Активация Avatar Frontiers of Pandora ULTIMATE

Premium

Активация Atomic Heart - Annihilation Instinct

ВСЕ DLC

смотреть онлайн / скачать торрент Создатель

Дубляж

смотреть онлайн / скачать торрент Цикады

1 сезон

смотреть онлайн / скачать торрент Фарго / Сезон: 5

5 сезон

смотреть онлайн / скачать торрент Убийцы цветочной луны

Дубляж

Рекомендуем

Рекомендуем

ВАЖНО

ВАЖНО

скачать торрент Lords of the Fallen

Steam-Rip

ARMORED CORE™ VI FIRES OF RUBICON™

Steam-Rip

jed

RePack

PAYDAY 3

Пиратка

RDR2

RePack

Hogwarts Legacy

Steam-Rip

смотреть онлайн / скачать торрент Захваченный

Невафильм

смотреть онлайн / скачать торрент Острые козырьки 6 сезон

6 сезон

FAR CRY 6

RePack

скачать торрент Dead Island™ 2

EGS-Rip

скачать торрент The Quarry

Steam-Rip

  

Призраки в Венеции / A Haunting in Venice (Кеннет Брана) [2023, Детектив, криминал, HDRip-AVC] 2xDUB [Red Head Sound, MovieDalen]

Призраки в Венеции через торрент piratbit.org

Раздают: 7 [ 66 KB/s ]
Размер: 2.29 GB | Добавлен: 17 д. назад | Торрент скачан:98 раз
assassins creed mirage активация

2023-11-16 08:06 Призраки в Венеции Скачать торрент  

Призраки в Венеции
A Haunting in Venice

Год выпуска: 2023
Страна: США, Великобритания, Италия
Студия: 20th Century Studios, Kinberg Genre, Scott Free Productions
Жанр: Детектив, криминал
Продолжительность: 01:43:22
Перевод:
Дублированный (неофициальный) | Red Head Sound
Дублированный (официальный) | MovieDalen [Казахстан] [Лицензия]
Субтитры: Русские (Forced, full), английские

Режиссер: Кеннет Брана

рейтинг кинопоиск рейтинг imdb

В ролях: Кеннет Брана, Кайл Аллен, Камилль Коттен, Джейми Дорнан, Тина Фей, Джуд Хилл, Эмма Лейрд, Келли Райлли, Риккардо Скамарчо, Мишель Йео, Амир Эль-Марси

Описание: Венеция. Вышедший на пенсию Эркюль Пуаро неохотно посещает спиритический сеанс, во время которого один из гостей оказывается убит. Бывший детектив берется за расследование.

Качество: HDRip-AVC
Формат: MKV

Видео: MPEG-4 AVC, 1024x554, 1986 Kbit/s, 24.000 fps
Аудио #01: 48 kHz, AC3, 5.1, 448 Kbps | Дублированный | Red Head Sound | RUS |
Аудио #02: 48 kHz, AC3, 5.1, 384 Kbps | Дублированный | MovieDalen | RUS |
Аудио #03: 48 kHz, AC3, 5.1, 448 Kbps | Оригинал | ENG |
скриншот  скриншот  скриншот  скриншот  скриншот  скриншот  

x264 [info]: frame I:1262 Avg QP:13.33 size: 63997
x264 [info]: frame P:27753 Avg QP:14.88 size: 24418
x264 [info]: frame B:119705 Avg QP:16.70 size: 5930

General
Unique ID : 204981951812199157529218925478393922444 (0x9A361680F7FA19B34DBF605440B7C38C)
Complete name : O:A.Haunting.in.Venice.2023.Дубляж.x264.seleZen.mkv
Format : Matroska
Format version : Version 4
File size : 2.29 GiB
Duration : 1 h 43 min
Overall bit rate : 3 177 kb/s
Frame rate : 23.976 FPS
Movie name : A.Haunting.in.Venice.2023.Дубляж.x264.seleZen
Encoded date : 2023-11-21 08:26:29 UTC
Writing application : mkvmerge v80.0 ('Roundabout') 64-bit
Writing library : libebml v1.4.4 + libmatroska v1.7.1
Cover : Yes
Attachments : cover.jpg / small_cover.jpg

Video
ID : 1
Format : AVC
Format/Info : Advanced Video Codec
Format profile : [email protected]
Format settings : CABAC / 12 Ref Frames
Format settings, CABAC : Yes
Format settings, Reference : 12 frames
Codec ID : V_MPEG4/ISO/AVC
Duration : 1 h 43 min
Bit rate : 1 894 kb/s
Width : 1 024 pixels
Height : 552 pixels
Display aspect ratio : 1.85:1
Frame rate mode : Constant
Frame rate : 23.976 (24000/1001) FPS
Color space : YUV
Chroma subsampling : 4:2:0
Bit depth : 8 bits
Scan type : Progressive
Bits/(Pixel*Frame) : 0.140
Stream size : 1.37 GiB (60%)
Title : -=DoMiNo=-
Writing library : x264 core 164 r3164 _DoMiNo
Encoding settings : cabac=1 / ref=12 / deblock=1:-2:-2 / analyse=0x3:0x133 / me=umh / subme=10 / psy=1 / psy_rd=1.04:0.03 / mixed_ref=1 / me_range=32 / chroma_me=1 / trellis=2 / 8x8dct=1 / cqm=0 / deadzone=21,11 / fast_pskip=0 / chroma_qp_offset=-3 / threads=17 / lookahead_threads=4 / sliced_threads=0 / nr=0 / decimate=0 / interlaced=0 / bluray_compat=0 / constrained_intra=0 / bframes=14 / b_pyramid=2 / b_adapt=2 / b_bias=0 / direct=3 / weightb=1 / open_gop=0 / weightp=2 / keyint=250 / keyint_min=23 / scenecut=40 / intra_refresh=0 / rc_lookahead=60 / rc=crf / mbtree=0 / crf=17.5 / qcomp=0.60 / qpmin=0 / qpmax=69 / qpstep=4 / vbv_maxrate=50000 / vbv_bufsize=62500 / crf_max=0.0 / nal_hrd=none / filler=0 / ip_ratio=1.30 / pb_ratio=1.30 / aq=3:0.80
Language : English
Default : Yes
Forced : No

Audio #1
ID : 2
Format : AC-3
Format/Info : Audio Coding 3
Commercial name : Dolby Digital
Codec ID : A_AC3
Duration : 1 h 43 min
Bit rate mode : Constant
Bit rate : 448 kb/s
Channel(s) : 6 channels
Channel layout : L R C LFE Ls Rs
Sampling rate : 48.0 kHz
Frame rate : 31.250 FPS (1536 SPF)
Compression mode : Lossy
Stream size : 331 MiB (14%)
Title : Дублированный | Red Head Sound
Language : Russian
Service kind : Complete Main
Default : Yes
Forced : No

Audio #2
ID : 3
Format : AC-3
Format/Info : Audio Coding 3
Commercial name : Dolby Digital
Codec ID : A_AC3
Duration : 1 h 43 min
Bit rate mode : Constant
Bit rate : 384 kb/s
Channel(s) : 6 channels
Channel layout : L R C LFE Ls Rs
Sampling rate : 48.0 kHz
Frame rate : 31.250 FPS (1536 SPF)
Compression mode : Lossy
Stream size : 284 MiB (12%)
Title : Дублированный | MovieDalen
Language : Russian
Service kind : Complete Main
Default : No
Forced : No

Audio #3
ID : 4
Format : AC-3
Format/Info : Audio Coding 3
Commercial name : Dolby Digital
Codec ID : A_AC3
Duration : 1 h 43 min
Bit rate mode : Constant
Bit rate : 448 kb/s
Channel(s) : 6 channels
Channel layout : L R C LFE Ls Rs
Sampling rate : 48.0 kHz
Frame rate : 31.250 FPS (1536 SPF)
Compression mode : Lossy
Stream size : 331 MiB (14%)
Title : Original
Language : English
Service kind : Complete Main
Default : No
Forced : No

Text #1
ID : 5
Format : UTF-8
Codec ID : S_TEXT/UTF8
Codec ID/Info : UTF-8 Plain Text
Duration : 1 h 24 min
Bit rate : 0 b/s
Frame rate : 0.001 FPS
Count of elements : 6
Stream size : 347 Bytes (0%)
Title : Forced
Language : Russian
Default : No
Forced : No

Text #2
ID : 6
Format : UTF-8
Codec ID : S_TEXT/UTF8
Codec ID/Info : UTF-8 Plain Text
Duration : 1 h 36 min
Bit rate : 106 b/s
Frame rate : 0.262 FPS
Count of elements : 1518
Stream size : 75.5 KiB (0%)
Title : Full
Language : Russian
Default : No
Forced : No

Text #3
ID : 7
Format : UTF-8
Codec ID : S_TEXT/UTF8
Codec ID/Info : UTF-8 Plain Text
Duration : 1 h 35 min
Bit rate : 67 b/s
Frame rate : 0.264 FPS
Count of elements : 1517
Stream size : 47.2 KiB (0%)
Title : Full
Language : English
Default : No
Forced : No

Text #4
ID : 8
Format : UTF-8
Codec ID : S_TEXT/UTF8
Codec ID/Info : UTF-8 Plain Text
Duration : 1 h 37 min
Bit rate : 78 b/s
Frame rate : 0.315 FPS
Count of elements : 1849
Stream size : 56.0 KiB (0%)
Title : SDH
Language : English
Default : No
Forced : No

Menu
00:00:00.000 : en:Chapter 01
00:02:39.659 : en:Chapter 02
00:03:33.255 : en:Chapter 03
00:06:40.942 : en:Chapter 04
00:11:54.464 : en:Chapter 05
00:17:41.185 : en:Chapter 06
00:19:04.435 : en:Chapter 07
00:23:12.850 : en:Chapter 08
00:28:36.256 : en:Chapter 09
00:33:09.821 : en:Chapter 10
00:36:11.586 : en:Chapter 11
00:42:54.906 : en:Chapter 12
00:46:47.221 : en:Chapter 13
00:51:01.058 : en:Chapter 14
00:55:04.092 : en:Chapter 15
01:01:57.464 : en:Chapter 16
01:07:12.820 : en:Chapter 17
01:11:02.300 : en:Chapter 18
01:16:03.642 : en:Chapter 19
01:20:41.628 : en:Chapter 20
01:29:08.426 : en:Chapter 21
01:30:14.826 : en:Chapter 22
01:35:09.287 : en:Chapter 23
01:40:16.427 : en:Chapter 24



Смотрeть онлайн Фильм Призраки в Венеции в хорошем HD 1080 качестве



Описание: Венеция. Вышедший на пенсию Эркюль Пуаро неохотно посещает спиритический сеанс, во время которого один из гостей оказывается ... https://i122.fastpic.org/big/2023/1116/5f/672c2b43bfa19a2bcbf5906c15d9585f.jpg https://i122.fastpic.org/big/2023/1116/5f/672c2b43bfa19a2bcbf5906c15d9585f.jpg 2023-11-16 08:06 Cмотреть онлайн Призраки в Венеции true ru Скачать Призраки в Венеции через торрент, смотреть онлайн Призраки в Венеции https://i122.fastpic.org/big/2023/1116/5f/672c2b43bfa19a2bcbf5906c15d9585f.jpg Скачать торрент Призраки в Венеции , смотреть онлайн Призраки в Венеции , бесплатно в хорошем качестве Описание: Венеция. Вышедший на пенсию Эркюль Пуаро неохотно посещает спиритический сеанс, во время которого один из гостей оказывается ... 9.7 10 7
Торрент: Зарегистрирован [2023-11-21 15:23] · скачан: 98 раз
Статус: √ проверено
Размер: 2.29 GB
Как cкачать? Как скачать Призраки в Венеции через торрент | UTorrent | Поделиться в телеграм

% Раздел Тема Автор DL S | L
Фильмы [HD 720p, 1080p] (Хороший звук DUB, MVO) [ 5.1 GB ] Призраки в Венеции / A Haunting in Venice | TVShows | 720p bober100 Скачать
6 | 0
Фильмы [HD 720p, 1080p] (Хороший звук DUB, MVO) [ 11.88 GB ] Призраки в Венеции / A Haunting in Venice | TVShows | 1080p bober100 Скачать
5 | 0
Фильмы (WEB-DL 720p, 1080p) [ 12.56 GB ] Призраки в Венеции / A Haunting in Venice | TVShows | 1080p bober100 Скачать
6 | 0
Фильмы 2022-2023 [DVDrip, WEB-DLRip, HDrip] (DUB, MVO) [ 700 MB ] Призраки в Венеции / A Haunting in Venice | Дубляж "MovieDalen" | DLRip, Дубляж "MovieDalen" coc900 Скачать
6 | 0

28-11-2019 20:33  


Отключить вcю реклaмy на сайте!

    Дорогой пользователь! Огромная просьба, поблагодарите релизера, оцените раздачу и оставьте свои комментарий, если Вы скачали Призраки в Венеции через торрент бесплатно!!
    Комментировать посты могут только пользователи прошедшие не сложную регистрацию
    Показать сообщения:    


    смотреть онлайн Призраки в Венеции
    Призраки в Венеции через торрент
    Скачать бесплатно Призраки в Венеции
    Призраки в Венеции скачать торрент
    Призраки в Венеции смотреть онлайн
    Cкачать фильм Призраки в Венеции бесплатно
    Призраки в Венеции скачать торрент в хорошем качестве
    Призраки в Венеции смотреть онлайн бесплатно в хорошем качестве
    Вы можете начинать темы
    Вы можете отвечать на сообщения
    Вы не можете редактировать свои сообщения
    Вы не можете удалять свои сообщения
    Вы не можете голосовать в опросах
    Вы не можете прикреплять файлы к сообщениям
    Вы можете скачивать файлы