смотреть онлайн / скачать торрент Слово пацана. Кровь на асфальте

1 сезон

смотреть онлайн / скачать торрент Убийца

Дубляж

смотреть онлайн / скачать торрент Монарх: Наследие монстров

1 сезон

Активация Assassins Creed Mirage

Deluxe

Активация Mortal Kombat 1 Premium Edition

Premium

Активация Atomic Heart - Annihilation Instinct

ВСЕ DLC

смотреть онлайн / скачать торрент Создатель

Дубляж

смотреть онлайн / скачать торрент Цикады

1 сезон

смотреть онлайн / скачать торрент Фарго / Сезон: 5

5 сезон

смотреть онлайн / скачать торрент Убийцы цветочной луны

Дубляж

Рекомендуем

Рекомендуем

ВАЖНО

ВАЖНО

скачать торрент Lords of the Fallen

Steam-Rip

ARMORED CORE™ VI FIRES OF RUBICON™

Steam-Rip

jed

RePack

PAYDAY 3

Пиратка

RDR2

RePack

Hogwarts Legacy

Steam-Rip

смотреть онлайн / скачать торрент Захваченный

Невафильм

смотреть онлайн / скачать торрент Острые козырьки 6 сезон

6 сезон

FAR CRY 6

RePack

скачать торрент Dead Island™ 2

EGS-Rip

скачать торрент The Quarry

Steam-Rip

  

Однажды в Абхазии / Независимый / Сезон: 1 / Серии: 1-8 из 8 (Теймураз Квеквескири) [2023, Комедия, WEBRip 1080p]

Однажды в Абхазии через торрент piratbit.org

Раздают: 12 [ 673 KB/s ] Качают: 1 [ 0 KB/s ]
Размер: 12.58 GB | Добавлен: 20 д. назад | Торрент скачан:109 раз
Atomic Heart+Annihilation Instinct активация

2023-11-19 06:09 Однажды в Абхазии Скачать торрент  

Однажды в Абхазии / Независимый
Год выпуска: 2023
Страна: Россия
Жанр: Комедия
Продолжительность: ~ 00:52:00 серия
Субтитры: отсутствуют

Режиссер: Теймураз Квеквескири

рейтинг кинопоиск

В ролях: Теймураз Тания, Лев Малишава, Геннадий Тарба, Аманда Кварацхелия, Инал Инапха, Адгур Джения, Тамара Гамгия, Роланд Бганба, Тимур Аршба, Екатерина Кабак, Ашот Кещян, Тома Авидзба, Джамбул Жордания

Описание: Теймураз — сотрудник МЧС Абхазии. После гибели старшего брата в наследство он получил его долги, поэтому уже давно живет со своими родителями, женой и двумя детьми в доме у тещи. Но беда не приходит одна. Местное правительство собирается завезти радиоактивные отходы на хранение в шахту, в которой трагически погиб и покоится тело дедушки Теймураза. Несколько попыток достучаться до власти и остановить приближающуюся катастрофу не приводят к успеху. Чтобы добиться справедливости, Теймураз решает выдвинуть свою кандидатуру на пост президента республики.

Качество: WEBRip 1080p
Формат: MKV

Видео: MPEG4 AVC Video, H264, 16:9, 1920x1080, 25 fps, ~4500 kbps, 0.087 bit/pixel
Аудио: AC3 Dolby Digital, 48.0 kHz, 2/0 (L,R) ch, 256 kbps
скриншот  скриншот  скриншот  скриншот  скриншот  скриншот  

General
Unique ID : 122858358575308471671147432408231642655 (0x5C6DA8BF5ADF2E9BF3D19A5B2483061F)
Complete name : W:\Odnazhdy.v.abhazii.S01.WEB-DL.1080p.MrMittens\Odnazhdy.v.abhazii.S01.E01.WEB-DL.1080p.MrMittens.mkv
Format : Matroska
Format version : Version 4 / Version 2
File size : 1.74 GiB
Duration : 51 min 52 s
Overall bit rate : 4 791 kb/s
Encoded date : UTC 2023-10-13 03:19:56
Writing application : mkvmerge v43.0.0 ('The Quartermaster') 64-bit
Writing library : libebml v1.3.10 + libmatroska v1.5.2

Video
ID : 1
Format : AVC
Format/Info : Advanced Video Codec
Format profile : High@L4
Format settings : CABAC / 4 Ref Frames
Format settings, CABAC : Yes
Format settings, ReFrames : 4 frames
Codec ID : V_MPEG4/ISO/AVC
Duration : 51 min 52 s
Bit rate : 4 533 kb/s
Nominal bit rate : 5 000 kb/s
Width : 1 920 pixels
Height : 1 080 pixels
Display aspect ratio : 16:9
Frame rate mode : Constant
Frame rate : 25.000 FPS
Color space : YUV
Chroma subsampling : 4:2:0
Bit depth : 8 bits
Scan type : Progressive
Bits/(Pixel*Frame) : 0.087
Stream size : 1.64 GiB (95%)
Writing library : x264 core 164
Encoding settings : cabac=1 / ref=2 / deblock=1:0:0 / analyse=0x3:0x113 / me=hex / subme=6 / psy=1 / psy_rd=1.00:0.00 / mixed_ref=1 / me_range=16 / chroma_me=1 / trellis=1 / 8x8dct=1 / cqm=0 / deadzone=21,11 / fast_pskip=1 / chroma_qp_offset=-2 / threads=12 / lookahead_threads=2 / sliced_threads=0 / nr=0 / decimate=1 / interlaced=0 / bluray_compat=0 / constrained_intra=0 / bframes=3 / b_pyramid=2 / b_adapt=1 / b_bias=0 / direct=1 / weightb=1 / open_gop=0 / weightp=1 / keyint=250 / keyint_min=25 / scenecut=40 / intra_refresh=0 / rc_lookahead=30 / rc=cbr / mbtree=1 / bitrate=5000 / ratetol=1.0 / qcomp=0.60 / qpmin=0 / qpmax=69 / qpstep=4 / vbv_maxrate=5000 / vbv_bufsize=6500 / nal_hrd=none / filler=0 / ip_ratio=1.40 / aq=1:1.00
Default : Yes
Forced : No
Color range : Limited
Color primaries : BT.709
Transfer characteristics : BT.709
Matrix coefficients : BT.709

Audio
ID : 2
Format : AC-3
Format/Info : Audio Coding 3
Codec ID : A_AC3
Duration : 51 min 52 s
Bit rate mode : Constant
Bit rate : 256 kb/s
Channel(s) : 2 channels
Channel positions : Front: L R
Sampling rate : 48.0 kHz
Frame rate : 31.250 FPS (1536 SPF)
Bit depth : 16 bits
Compression mode : Lossy
Delay relative to video : -80 ms
Stream size : 95.0 MiB (5%)
Language : Russian
Service kind : Complete Main
Default : Yes
Forced : No



Смотрeть онлайн Фильм Однажды в Абхазии в хорошем HD 1080 качестве



Описание: Теймураз — сотрудник МЧС Абхазии. После гибели старшего брата в наследство он получил его долги, поэтому уже давно живет со ... https://i122.fastpic.org/big/2023/1013/92/a7f9e58ca68275243031a84a46ffab92.jpg https://i122.fastpic.org/big/2023/1013/92/a7f9e58ca68275243031a84a46ffab92.jpg 2023-11-19 06:09 Cмотреть онлайн Однажды в Абхазии true ru Скачать Однажды в Абхазии через торрент, смотреть онлайн Однажды в Абхазии https://i122.fastpic.org/big/2023/1013/92/a7f9e58ca68275243031a84a46ffab92.jpg Скачать торрент Однажды в Абхазии , смотреть онлайн Однажды в Абхазии , бесплатно в хорошем качестве Описание: Теймураз — сотрудник МЧС Абхазии. После гибели старшего брата в наследство он получил его долги, поэтому уже давно живет со ... 8.7 10 9
Торрент: Зарегистрирован [2023-11-19 06:09] · скачан: 109 раз
Статус: √ проверено
Размер: 12.58 GB
Как cкачать? Как скачать Однажды в Абхазии через торрент | UTorrent | Поделиться в телеграм

% Раздел Тема Автор DL S | L
Русские сериалы [ 4.83 GB ] Однажды в Абхазии / Независимый / Сезон: 1 / Серии: 1-8 из 8 | | WEBRip-AVC bober100 Скачать
12 | 1
Русские сериалы [ 5.05 GB ] Однажды в Абхазии / Независимый / Сезон: 1 / Серии: 1-8 из 8 | | WEBRip bober100 Скачать
8 | 0

28-11-2019 20:33  


Отключить вcю реклaмy на сайте!

    Дорогой пользователь! Огромная просьба, поблагодарите релизера, оцените раздачу и оставьте свои комментарий, если Вы скачали Однажды в Абхазии через торрент бесплатно!!
    Комментировать посты могут только пользователи прошедшие не сложную регистрацию
    Показать сообщения:    


    смотреть онлайн Однажды в Абхазии
    Однажды в Абхазии через торрент
    Скачать бесплатно Однажды в Абхазии
    Однажды в Абхазии скачать торрент
    Однажды в Абхазии смотреть онлайн
    Cкачать фильм Однажды в Абхазии бесплатно
    Однажды в Абхазии скачать торрент в хорошем качестве
    Однажды в Абхазии смотреть онлайн бесплатно в хорошем качестве
    Вы не можете начинать темы
    Вы не можете отвечать на сообщения
    Вы не можете редактировать свои сообщения
    Вы не можете удалять свои сообщения
    Вы не можете голосовать в опросах
    Вы не можете прикреплять файлы к сообщениям
    Вы можете скачивать файлы