смотреть онлайн / скачать торрент Слово пацана. Кровь на асфальте

1 сезон

смотреть онлайн / скачать торрент Убийца

Дубляж

смотреть онлайн / скачать торрент Монарх: Наследие монстров

1 сезон

Активация Assassins Creed Mirage

Deluxe

Активация Avatar Frontiers of Pandora ULTIMATE

Premium

Активация Atomic Heart - Annihilation Instinct

ВСЕ DLC

смотреть онлайн / скачать торрент Создатель

Дубляж

смотреть онлайн / скачать торрент Цикады

1 сезон

смотреть онлайн / скачать торрент Фарго / Сезон: 5

5 сезон

смотреть онлайн / скачать торрент Убийцы цветочной луны

Дубляж

Рекомендуем

Рекомендуем

ВАЖНО

ВАЖНО

скачать торрент Lords of the Fallen

Steam-Rip

ARMORED CORE™ VI FIRES OF RUBICON™

Steam-Rip

jed

RePack

PAYDAY 3

Пиратка

RDR2

RePack

Hogwarts Legacy

Steam-Rip

смотреть онлайн / скачать торрент Захваченный

Невафильм

смотреть онлайн / скачать торрент Острые козырьки 6 сезон

6 сезон

FAR CRY 6

RePack

скачать торрент Dead Island™ 2

EGS-Rip

скачать торрент The Quarry

Steam-Rip

  

Остров / The Island (Шон Пол Пиччинино) [2023 г., боевик, триллер, HDRip, Дубляж "Кинопоиск HD"]

Остров через торрент piratbit.org

Раздают: 3 [ 0 KB/s ]
Размер: 719 MB | Добавлен: 19 д. назад | Торрент скачан:11 раз
XBOX GAME PASS [PC] +400 игр (13 мес)

2023-11-19 17:51 Остров Скачать торрент  

Остров / The Island
Год выпуска: 2023
Страна: Сент-Китс и Невис / MSR Media
Жанр: боевик, триллер
Продолжительность: 01:33:07
Перевод: Дубляж (Кинопоиск HD)
Субтитры: русские форсированные – вшитые

Режиссер: Шон Пол Пиччинино

рейтинг кинопоиск рейтинг imdb

В ролях: Майкл Джей Уайт, Джиллиан Уайт, Джексон Рэтбоун, Эдоардо Коста, Уэйн Энтони Гордон, Donald Brooks, Эстер Брукс, Kishorn Charles, Фрэнк Корби, Уинстон Крук

Описание: Полицейский из Лос-Анджелеса возвращается на остров, где он вырос, чтобы расследовать смерть брата. Узнавая новые подробности о жизни родного городка, он вступает в противостояние с коррумпированными властями.

Качество: HDRip
Формат: AVI
Видео кодек: DivX
Аудио кодек: MP3
Видео: MPEG4, DivX 4, 640x272 (2.35:1), 24.000 fps, 942 kb/s (0.226 bit/pixel)
Аудио: MP3, 48.0 kHz, 2 ch, 128 kb/s, CBR

General
Complete name : G:\ФИЛЬМЫ\Остров.2023.Дубляж.HDRip.avi
Format : AVI
Format/Info : Audio Video Interleave
File size : 719 MiB
Duration : 1 h 33 min
Overall bit rate : 1 079 kb/s
Writing application : VirtualDubMod 1.5.10.3 | www.virtualdub-fr.org || (build 2550/release)
Writing library : VirtualDubMod build 2550/release

Video
ID : 0
Format : MPEG-4 Visual
Format profile : Advanced Simple@L5
Format settings : BVOP2
Format settings, BVOP : 2
Format settings, QPel : No
Format settings, GMC : No warppoints
Format settings, Matrix : Default (MPEG)
Codec ID : DIVX
Codec ID/Info : Project Mayo
Codec ID/Hint : DivX 4
Duration : 1 h 33 min
Bit rate : 942 kb/s
Width : 640 pixels
Height : 272 pixels
Display aspect ratio : 2.35:1
Frame rate : 24.000 FPS
Color space : YUV
Chroma subsampling : 4:2:0
Bit depth : 8 bits
Scan type : Progressive
Compression mode : Lossy
Bits/(Pixel*Frame) : 0.226
Stream size : 628 MiB (87%)
Writing library : XviD 1.2.1 (UTC 2008-12-04)

Audio
ID : 1
Format : MPEG Audio
Format version : Version 1
Format profile : Layer 3
Format settings : Joint stereo / MS Stereo
Codec ID : 55
Codec ID/Hint : MP3
Duration : 1 h 32 min
Bit rate mode : Constant
Bit rate : 128 kb/s
Channel(s) : 2 channels
Sampling rate : 48.0 kHz
Frame rate : 41.667 FPS (1152 SPF)
Compression mode : Lossy
Stream size : 85.1 MiB (12%)
Alignment : Aligned on interleaves
Interleave, duration : 42 ms (1.00 video frame)
Interleave, preload duration : 504 ms
Writing library : LAME3.99r
Encoding settings : -m j -V 4 -q 2 -lowpass 17 -b 128



Смотрeть онлайн Фильм Остров в хорошем HD 1080 качестве



Описание: Полицейский из Лос-Анджелеса возвращается на остров, где он вырос, чтобы расследовать смерть брата. Узнавая новые подробности о ... https://i122.fastpic.org/big/2023/1119/52/fd216439d17fe3730585a665983d3852.jpg https://i122.fastpic.org/big/2023/1119/52/fd216439d17fe3730585a665983d3852.jpg 2023-11-19 17:51 Cмотреть онлайн Остров true ru Скачать Остров через торрент, смотреть онлайн Остров https://i122.fastpic.org/big/2023/1119/52/fd216439d17fe3730585a665983d3852.jpg Скачать торрент Остров , смотреть онлайн Остров , бесплатно в хорошем качестве Описание: Полицейский из Лос-Анджелеса возвращается на остров, где он вырос, чтобы расследовать смерть брата. Узнавая новые подробности о ... 10 10 3
Торрент: Зарегистрирован [2023-11-19 17:51] · скачан: 11 раз
Статус: √ проверено
Размер: 719 MB
Как cкачать? Как скачать Остров через торрент | UTorrent | Поделиться в телеграм

% Раздел Тема Автор DL S | L
Фильмы 2022-2023 [DVDrip, WEB-DLRip, HDrip] (DUB, MVO) [ 1.46 GB ] Остров / The Island | DUB | BDRip-AVC bober100 Скачать
10 | 0
Фильмы 2022-2023 [DVDrip, WEB-DLRip, HDrip] (DUB, MVO) [ 1.46 GB ] Остров / The Island | DUB | BDRip bober100 Скачать
3 | 0
Фильмы [HD 720p, 1080p] (Хороший звук DUB, MVO) [ 8.76 GB ] Остров / The Island | HDRezka Studio | 1080p bober100 Скачать
4 | 0
Фильмы [HD 720p, 1080p] (Хороший звук DUB, MVO) [ 3.86 GB ] Остров / The Island | HDRezka Studio | 720p bober100 Скачать
2 | 0
Фильмы (Blu-ray, BD-Remux, HDDVD) [ 16.16 GB ] Остров / The Island | HDRezka Studio | BD Remux 1080p bober100 Скачать
4 | 0

28-11-2019 20:33  


Отключить вcю реклaмy на сайте!

2023-11-19 18:00 Остров Скачать торрент  

угольки спасут мир )))). Смотрим!



    Дорогой пользователь! Огромная просьба, поблагодарите релизера, оцените раздачу и оставьте свои комментарий, если Вы скачали Остров через торрент бесплатно!!
    Комментировать посты могут только пользователи прошедшие не сложную регистрацию
    Показать сообщения:    


    смотреть онлайн Остров
    Остров через торрент
    Скачать бесплатно Остров
    Остров скачать торрент
    Остров смотреть онлайн
    Cкачать фильм Остров бесплатно
    Остров скачать торрент в хорошем качестве
    Остров смотреть онлайн бесплатно в хорошем качестве
    Вы можете начинать темы
    Вы можете отвечать на сообщения
    Вы не можете редактировать свои сообщения
    Вы не можете удалять свои сообщения
    Вы не можете голосовать в опросах
    Вы не можете прикреплять файлы к сообщениям
    Вы можете скачивать файлы