1 сезон

3 сезон

iTunes

1

iTunes

MVO

iTunes

13

1 сезон

RePack

30

Deluxe

pack

Лицензия

ВАЖНО

ИГРА 18+

pack

RePack

MK11

RePack

jed

RePack

fifa19

RePack

RDR2

RePack

NEED FOR SPEED™ PAYBACK

4 сезон

9 сезон

Бесстыжие 9 сезон

Все сериалы

все сериалы на PB.wtf

RePack

FAR CRY 5

Anonymous, доброй ночи, мы катастрофически не успеваем собрать деньги на оплату серверов, помогите нам пожалуйста 5,10,15р., для нас важна любая помощь . В качестве благодарности мы отключим Вам всю рекламу на сайте (укажите свой ник в строку Ваше имя)!

×
  
Magnet ссылка

(Pop\Rock) Avril Lavigne - Goodbye Lullaby [Japanese Limited Edition] - 2011, FLAC (tracks) lossless piratbit.org

через торрент piratbit.org

Размер: 482 MB | Добавлен: 10 лет назад | Торрент скачан:13 раз
Скачать  

11-03-2011 12:57 Скачать торрент  

Avril Lavigne - Goodbye Lullaby [Japanese Limited Edition]
Год издания диска: 2011
Жанр: Pop\Rock
Страна-производитель диска: Япония
Аудио кодек: FLAC (*.flac)
Битрейт аудио: lossless
Продолжительность: 01:07:09
Тип издания: Album
Издатель (лейбл): Sony Music Japan
Страна: Канада
Треклист:
01. Black Star [1:34]
02. What The Hell [3:41]
03. Push [3:01]
04. Wish You Were Here [3:46]
05. Smile [3:29]
06. Stop Standing There [3:27]
07. I Love You [4:02]
08. Everybody Hurts [3:42]
09. Not Enough [4:19]
10. 4 Real [3:28]
11. Darlin' [3:50]
12. Alice (Extended Version) [5:00]
13. Remember When [3:29]
14. Goodbye [4:32]
15. What The Hell (Acoustic Version) [3:41]
16. Push (Acoustic Version) [2:46]
17. Wish You Were Here (Acoustic Version) [3:46]
18. Knockin' On Heaven's Door (Studio Version) [2:52]
19. Bad Reputation [2:42]
Exact Audio Copy V1.0 beta 1 from 15. November 2010
EAC extraction logfile from 3. March 2011, 17:33
Avril Lavigne / Goodbye Lullaby (Japan Edition)
Used drive : HL-DT-STBD-RE GGW-H20N Adapter: 0 ID: 1
Read mode : SecureUtilize accurate stream : YesDefeat audio cache : YesMake use of C2 pointers : No
Read offset correction : 1Overread into Lead-In and Lead-Out : NoFill up missing offset samples with silence : YesDelete leading and trailing silent blocks : NoNull samples used in CRC calculations : YesUsed interface : Native Win32 interface for Win NT & 2000Gap handling : Appended to previous track
Used output format : User Defined EncoderSelected bitrate : 128 kBit/sQuality : HighAdd ID3 tag : NoCommand line compressor : C:\Program Files (x86)\Exact Audio Copy\Flac\flac.exeAdditional command line options : -V -8 -T "artist=%a" -T "title=%t" -T "album=%g" -T "date=%y" -T "tracknumber=%n" -T "genre=%m" %s
TOC of the extracted CD
Track | Start | Length | Start sector | End sector --------------------------------------------------------- 1 | 0:00.00 | 1:34.07 | 0 | 7056 2 | 1:34.07 | 3:40.47 | 7057 | 23603 3 | 5:14.54 | 3:01.22 | 23604 | 37200 4 | 8:16.01 | 3:45.51 | 37201 | 54126 5 | 12:01.52 | 3:29.34 | 54127 | 69835 6 | 15:31.11 | 3:27.20 | 69836 | 85380 7 | 18:58.31 | 4:01.71 | 85381 | 103526 8 | 23:00.27 | 3:41.58 | 103527 | 120159 9 | 26:42.10 | 4:18.47 | 120160 | 139556 10 | 31:00.57 | 3:28.26 | 139557 | 155182 11 | 34:29.08 | 3:50.37 | 155183 | 172469 12 | 38:19.45 | 5:00.37 | 172470 | 195006 13 | 43:20.07 | 3:29.15 | 195007 | 210696 14 | 46:49.22 | 4:32.13 | 210697 | 231109 15 | 51:21.35 | 3:40.61 | 231110 | 247670 16 | 55:02.21 | 2:46.00 | 247671 | 260120 17 | 57:48.21 | 3:45.70 | 260121 | 277065 18 | 61:34.16 | 2:52.15 | 277066 | 289980 19 | 64:26.31 | 2:42.16 | 289981 | 302146
Track 1
Filename C:\EACRips\Avril Lavigne - 2011 - Goodbye Lullaby (Japan Edition) - FLAC\01 - Black Star.wav
Peak level 97.2 % Extraction speed 0.9 X Track quality 100.0 % Test CRC 4B893FEB Copy CRC 4B893FEB Copy OK
Track 2
Filename C:\EACRips\Avril Lavigne - 2011 - Goodbye Lullaby (Japan Edition) - FLAC\02 - What The Hell.wav
Peak level 96.1 % Extraction speed 1.1 X Track quality 100.0 % Test CRC 01AFAB0C Copy CRC 01AFAB0C Copy OK
Track 3
Filename C:\EACRips\Avril Lavigne - 2011 - Goodbye Lullaby (Japan Edition) - FLAC\03 - Push.wav
Peak level 97.7 % Extraction speed 1.2 X Track quality 100.0 % Test CRC A5C820B2 Copy CRC A5C820B2 Copy OK
Track 4
Filename C:\EACRips\Avril Lavigne - 2011 - Goodbye Lullaby (Japan Edition) - FLAC\04 - Wish You Were Here.wav
Peak level 97.7 % Extraction speed 1.2 X Track quality 100.0 % Test CRC 2C49825A Copy CRC 2C49825A Copy OK
Track 5
Filename C:\EACRips\Avril Lavigne - 2011 - Goodbye Lullaby (Japan Edition) - FLAC\05 - Smile.wav
Peak level 97.7 % Extraction speed 1.3 X Track quality 100.0 % Test CRC 9C888CAE Copy CRC 9C888CAE Copy OK
Track 6
Filename C:\EACRips\Avril Lavigne - 2011 - Goodbye Lullaby (Japan Edition) - FLAC\06 - Stop Standing There.wav
Peak level 100.0 % Extraction speed 1.2 X Track quality 100.0 % Test CRC F51F4626 Copy CRC F51F4626 Copy OK
Track 7
Filename C:\EACRips\Avril Lavigne - 2011 - Goodbye Lullaby (Japan Edition) - FLAC\07 - I Love You.wav
Peak level 96.1 % Extraction speed 1.4 X Track quality 100.0 % Test CRC 21A7F14C Copy CRC 21A7F14C Copy OK
Track 8
Filename C:\EACRips\Avril Lavigne - 2011 - Goodbye Lullaby (Japan Edition) - FLAC\08 - Everybody Hurts.wav
Peak level 100.0 % Extraction speed 1.5 X Track quality 100.0 % Test CRC 91790479 Copy CRC 91790479 Copy OK
Track 9
Filename C:\EACRips\Avril Lavigne - 2011 - Goodbye Lullaby (Japan Edition) - FLAC\09 - Not Enough.wav
Peak level 97.7 % Extraction speed 1.5 X Track quality 100.0 % Test CRC 0D8592FB Copy CRC 0D8592FB Copy OK
Track 10
Filename C:\EACRips\Avril Lavigne - 2011 - Goodbye Lullaby (Japan Edition) - FLAC\10 - 4 Real.wav
Peak level 100.0 % Extraction speed 1.5 X Track quality 100.0 % Test CRC D91244A8 Copy CRC D91244A8 Copy OK
Track 11
Filename C:\EACRips\Avril Lavigne - 2011 - Goodbye Lullaby (Japan Edition) - FLAC\11 - Darlin'.wav
Peak level 100.0 % Extraction speed 1.3 X Track quality 99.9 % Test CRC BA8E5D77 Copy CRC BA8E5D77 Copy OK
Track 12
Filename C:\EACRips\Avril Lavigne - 2011 - Goodbye Lullaby (Japan Edition) - FLAC\12 - Alice (Extended Version).wav
Peak level 97.2 % Extraction speed 1.4 X Track quality 99.9 % Test CRC 72390EF9 Copy CRC 72390EF9 Copy OK
Track 13
Filename C:\EACRips\Avril Lavigne - 2011 - Goodbye Lullaby (Japan Edition) - FLAC\13 - Remember When.wav
Peak level 97.7 % Extraction speed 1.3 X Track quality 99.9 % Test CRC 2FBCC17E Copy CRC 2FBCC17E Copy OK
Track 14
Filename C:\EACRips\Avril Lavigne - 2011 - Goodbye Lullaby (Japan Edition) - FLAC\14 - Goodbye.wav
Peak level 100.0 % Extraction speed 1.7 X Track quality 100.0 % Test CRC 479BC93F Copy CRC 479BC93F Copy OK
Track 15
Filename C:\EACRips\Avril Lavigne - 2011 - Goodbye Lullaby (Japan Edition) - FLAC\15 - What The Hell (Acoustic).wav
Peak level 97.7 % Extraction speed 1.4 X Track quality 99.9 % Test CRC E069DEAA Copy CRC E069DEAA Copy OK
Track 16
Filename C:\EACRips\Avril Lavigne - 2011 - Goodbye Lullaby (Japan Edition) - FLAC\16 - Push (Acoustic).wav
Peak level 97.7 % Extraction speed 1.6 X Track quality 100.0 % Test CRC 761E289B Copy CRC 761E289B Copy OK
Track 17
Filename C:\EACRips\Avril Lavigne - 2011 - Goodbye Lullaby (Japan Edition) - FLAC\17 - Wish You Were Here (Acoustic).wav
Peak level 97.7 % Extraction speed 1.7 X Track quality 100.0 % Test CRC 0899B2DB Copy CRC 0899B2DB Copy OK
Track 18
Filename C:\EACRips\Avril Lavigne - 2011 - Goodbye Lullaby (Japan Edition) - FLAC\18 - Knockin' On Heaven's Door.wav
Peak level 97.7 % Extraction speed 1.7 X Track quality 100.0 % Test CRC A8EA5E38 Copy CRC A8EA5E38 Copy OK
Track 19
Filename C:\EACRips\Avril Lavigne - 2011 - Goodbye Lullaby (Japan Edition) - FLAC\19 - Bad Reputation.wav
Peak level 100.0 % Extraction speed 1.7 X Track quality 100.0 % Test CRC D8A71998 Copy CRC D8A71998 Copy OK
No errors occurred
End of status report
01. Black Star

02. What The Hell

03. Push

04. Wish You Were Here

05. Smile

06. Stop Standing There

07. I Love You

08. Everybody Hurts

09. Not Enough

10. 4 Real

11. Darlin

12. Alice (Extended Version)

13. Remember When

14. Goodbye

15. What The Hell (Acoustic Version)

16. Push (Acoustic Version)

17. Wish You Were Here (Acoustic Version)

18. Knockin' On Heaven's Door

19. Bad Reputation

piratbit.org



Скачать через торрент http://i17.fastpic.ru/big/2011/0309/7e/b86d7ebb793dbcd818773e119ddc5a7e.jpg Скачать фильм через торрент бесплантно в хорошем качестве Треклист: Black Star [1:34] What The Hell [3:41] Push [3:01] Wish You Were Here [3:46] Smile [3:29] Stop Standing There ... 10 10 1
Info! Золотая раздача, скачанное не засчитывается.
Торрент: Зарегистрирован [2011-03-11 12:57] · скачан: 13 раз
Статус: √ проверено
Размер: 482 MB
Как cкачать? Как скачать через торрент | UTorrent

% Раздел Тема Автор DL S | L
Classic Rock & Hard Rock (lossless) [ 2.68 GB ] EVANESCENCE Дискография - 1998-2007 FLAC lossless ser_1985 Скачать
1 | 0
Eurodance, Technopop, Disco (lossless) [ 1.86 GB ] Dr. Alban Студийные альбомы - 5CD [FLAC lossless] tauras Скачать
1 | 0
Action FPS (1st Person) [ 8.89 GB ] Star Wars: The Force Unleashed - Ultimate Sith Edition [Lossless Repack RU/EN] от Druid =Чувак= Скачать
1 | 0
Архив (Alternative, Punk, Independent) [ 1.74 GB ] Breaking Benjamin - Дискография - 2001-2009 FLAC lossless King_IS_Back Скачать
1 | 0
Гоночные симуляторы [ 3.18 GB ] Дальнобойщик​и 3: Золотое Издание [Lossless Repack RU] от R.G. Catalyst roman3310i Скачать
1 | 1
Архив (Многоканальная музыка и собственные оцифровки) [ 405 MB ] Black Sabbath -Heaven & hell - 1980 DTS lossless staryirocker Скачать
1 | 0
RTS (стратегии в реальном времени) [ 4.21 GB ] Command & Conquer 4: Tiberian Twilight [Lossless RePackRUEA] Alex_Zeyn Скачать
1 | 0

28-11-2019 20:33  

Отключить всю рекламу на сайте

    Дорогой пользователь! Огромная просьба, поблагодарите релизера, оцените раздачу и оставьте свои комментарий, если Вы скачали через торрент бесплатно! Внесите свою лепту в развитие PiratBit!
    Комментировать посты могут только пользователи прошедшие не сложную регистрацию
    Показать сообщения:    

    через торрент
    Скачать бесплатно
    скачать торрент
    смотреть онлайн
    Cкачать фильм бесплатно
    скачать торрент в хорошем качестве
    смотреть онлайн бесплатно в хорошем качестве


    Вы не можете начинать темы
    Вы не можете отвечать на сообщения
    Вы не можете редактировать свои сообщения
    Вы не можете удалять свои сообщения
    Вы не можете голосовать в опросах
    Вы не можете прикреплять файлы к сообщениям
    Вы можете скачивать файлы