Ссылка на приватное зеркало нашего сайта всего за 1$. Внимание количество ограничено!!!

2 сезон

iTunes

1 сезон

1

2 сезон

2 сезон

iTunes

1 сезон

RePack

30

Новинка

ВАЖНО

ИГРА 18+

pack

RePack

MK11
pack

Забери бонус

RePack

jed

!!Акция!!

Alien_Rage

RePack

fifa19

RePack

Assassins Creed: Odyssey

RePack

NEED FOR SPEED™ PAYBACK

4 сезон

9 сезон

Бесстыжие 9 сезон

Все сериалы

все сериалы на PB.wtf

RePack

FAR CRY 5
  

Рапунцель: Запутанная история / Tangled (Натан Грено, Байрон Ховард / Nathan Greno, Byron Howard) [2010, США, мультфильм, мюзикл, фэнтези, мелодрама, комедия, DVD9] R5 «Уолт Дисней Компани СНГ» piratbit.org

Рапунцель: Запутанная история через торрент piratbit.org

Размер: 6.2 GB | Добавлен: 9 лет 8 мес. назад | Торрент скачан:243 раза
Скачать  

17-03-2011 22:57 Рапунцель: Запутанная история Скачать торрент  


Рапунцель: Запутанная история / Tangled
«Приключения предпочитают блондинок»
Страна: США
Студия: Walt Disney Animation Studios, Walt Disney Pictures
Жанр: мультфильм, мюзикл, фэнтези, мелодрама, комедия
Год выпуска: 2010
Мировая премьера: 24 ноября 2010
Российская премьера: 25 ноября 2010, «WDSSPR» 3D
Дата выхода DVD: 24 марта 2011, «Уолт Дисней Компани СНГ»
Дата выхода Blu-Ray: 12 апреля 2011, «Уолт Дисней Компани СНГ»
Продолжительность: 01:36:51
Перевод: Профессиональный (дублированный) [Лицензия]
Cубтитры: русские, английские, украинские, иврит
Оригинальная аудиодорожка: английский
Режиссер: Натан Грено, Байрон Ховард / Nathan Greno, Byron Howard
В ролях: Мэнди Мур, Захари Левай, Донна Мерфи, Рон Перлман, М.К.Гейни, Джефри Тэмбор, Брэд Гэррет, Пол Ф.Томпкинс, Ричард Кил, Делани Роуз Стейн
Описание: Обаятельный разбойник Флинн путешествует по жизни с легкостью, лишь потому, что он красив, болтлив и удачлив. И казалось, фортуна всегда на его стороне, пока однажды он не выбирает высокую башню в густой чаще леса в качестве «спокойного» убежища. Флинн оказывается связанным по рукам и ногам юной красавицей по имени Рапунцель. Если вы думаете, что самое интересное в ней — это 21 метр волшебных золотистых волос, то вы заблуждаетесь! Запертая в башне и отчаянно ищущая приключений, Рапунцель решает использовать Флинна в качестве билета в большой мир. Сначала комичное похищение, затем невинный шантаж — и вот наши герои на воле. Вместе с главными героями в авантюрное путешествие отправятся бравый конь-ищейка Максимус, ручной хамелеон и шайка сумасбродных разбойников.
Бонусы: Комментарии создателей; 50 анимационных картинок

Качество: DVD9 R5
Формат: DVD-Video
Видео кодек: MPEG2
Аудио кодек: AC3
Видео: PAL 16:9 (720x576(0.527)) MPEG Video,25,000 кадр/сек, 5464 Кбит/сек
Аудио: Russian / Ukrainian / English / Hebrew (Dolby AC3, 6 ch) 384 Кбит/сек, 48,0 КГц



Title: F
Size: 6.20 Gb ( 6 503 076 KBytes ) - DVD-9
Enabled regions: 1, 2, 3, 4, 5, 6, 7, 8

VTS_01 :
Play Length:
Video: PAL 16:9 (720x576) VBR, Auto Pan&Scan
Audio:
Not specified (Dolby AC3, 2 ch)
Not specified (Dolby AC3, 2 ch)
Not specified (Dolby AC3, 2 ch)
Not specified (Dolby AC3, 2 ch)
Not specified (Dolby AC3, 2 ch)
Not specified (Dolby AC3, 2 ch)
Not specified (Dolby AC3, 2 ch)
Not specified (Dolby AC3, 2 ch)
Subtitles:
Not specified
Not specified
Not specified
Not specified
Not specified
Not specified
Not specified
Not specified
Not specified
Not specified
Not specified
Not specified

VTS_02 :
Play Length: 00:00:11
Video: PAL 16:9 (720x576) VBR, Auto Letterboxed
Audio:
English (Dolby AC3, 6 ch)

VTS_03 :
Play Length: 00:00:16
Video: PAL 16:9 (720x576) VBR, Auto Pan&Scan
Audio:
English (Dolby AC3, 6 ch)
Subtitles:
Not specified

VTS_04 :
Play Length: 00:00:16+00:00:05
Video: PAL 16:9 (720x576) VBR, Auto Pan&Scan
Audio:
English (Dolby AC3, 6 ch)
Subtitles:
Russian
Ukrainian
Hebrew

VTS_05 :
Play Length: 01:36:12+01:36:51
Video: PAL 16:9 (720x576) VBR, Auto Letterboxed
Audio:
English (Dolby AC3, 6 ch)
Russian (Dolby AC3, 6 ch)
Ukrainian (Dolby AC3, 6 ch)
Hebrew (Dolby AC3, 6 ch)
Subtitles:
English
English
Russian
Ukrainian
Hebrew
Ukrainian
Hebrew

VTS_06 :
Play Length: 00:02:00+00:03:49+00:03:53
Video: PAL 16:9 (720x576) VBR, Auto Letterboxed
Audio:
English (Dolby AC3, 2 ch)
Subtitles:
Russian
Ukrainian
Hebrew

VTS_07 :
Play Length: 00:04:07+00:02:52+00:08:28+00:04:53+00:04:21+00:02:01
Video: PAL 16:9 (720x576) VBR, Auto Letterboxed
Audio:
English (Dolby AC3, 2 ch)
Russian (Dolby AC3, 2 ch)
Ukrainian (Dolby AC3, 2 ch)
Hebrew (Dolby AC3, 2 ch)
Subtitles:
English
Russian
Ukrainian
Hebrew

Menu Video:
PAL 16:9 (720x576) VBR
Auto Pan&Scan
Menu Audio:
Not specified (Dolby AC3, 2 ch)
Menu Subtitles:
Not specified
Menu English Language Unit :
Root Menu
Angle menu
Chapter (PTT) Menu
Audio Menu
Общее
Полное имя : E:\Новинки 2011\Rapuncel.zaputannaja.istorija.2010.DVD-9\VIDEO_TS\VTS_05_2.VOB
Формат : MPEG-PS
Размер файла : 1024 Мбайт
Продолжительность : 20 м.
Общий поток : 7142 Кбит/сек

Видео
Идентификатор : 224 (0xE0)
Формат : MPEG Video
Версия формата : Version 2
Профиль формата : Main@Main
Параметр BVOP формата : Да
Параметр матрицы формата : По умолчанию
Параметры GOP формата : M=3, N=12
Продолжительность : 20 м.
Вид битрейта : Переменный
Битрейт : 5464 Кбит/сек
Номинальный битрейт : 9800 Кбит/сек
Ширина : 720 пикс.
Высота : 576 пикс.
Соотношение сторон : 16:9
Частота кадров : 25,000 кадр/сек
Стандарт вещания : Component
Цветовое пространство : YUV
Подвыборка цветности : 4:2:0
Битовая глубина : 8 бит
Тип развёртки : Прогрессивная
Порядок развёртки : Верхнее поле первое
Метод сжатия : С потерями
Бит/(Пиксели*Кадры) : 0.527
Размер потока : 783 Мбайт (77%)

Аудио #1
Идентификатор : 189 (0xBD)-128 (0x80)
Формат : AC-3
Формат/Информация : Audio Coding 3
Расширение режима : CM (complete main)
Режим смешивания : DVD-Video
Продолжительность : 20 м.
Вид битрейта : Постоянный
Битрейт : 384 Кбит/сек
Канал(ы) : 6 канала(ов)
Расположение каналов : Front: L C R, Side: L R, LFE
Частота : 48,0 КГц
Битовая глубина : 16 бит
Метод сжатия : С потерями
Задержка видео : -520 мс.
Размер потока : 55,1 Мбайт (5%)

Аудио #2
Идентификатор : 189 (0xBD)-129 (0x81)
Формат : AC-3
Формат/Информация : Audio Coding 3
Расширение режима : CM (complete main)
Режим смешивания : DVD-Video
Продолжительность : 20 м.
Вид битрейта : Постоянный
Битрейт : 384 Кбит/сек
Канал(ы) : 6 канала(ов)
Расположение каналов : Front: L C R, Side: L R, LFE
Частота : 48,0 КГц
Битовая глубина : 16 бит
Метод сжатия : С потерями
Задержка видео : -520 мс.
Размер потока : 55,1 Мбайт (5%)

Аудио #3
Идентификатор : 189 (0xBD)-130 (0x82)
Формат : AC-3
Формат/Информация : Audio Coding 3
Расширение режима : CM (complete main)
Режим смешивания : DVD-Video
Продолжительность : 20 м.
Вид битрейта : Постоянный
Битрейт : 384 Кбит/сек
Канал(ы) : 6 канала(ов)
Расположение каналов : Front: L C R, Side: L R, LFE
Частота : 48,0 КГц
Битовая глубина : 16 бит
Метод сжатия : С потерями
Задержка видео : -520 мс.
Размер потока : 55,1 Мбайт (5%)

Аудио #4
Идентификатор : 189 (0xBD)-131 (0x83)
Формат : AC-3
Формат/Информация : Audio Coding 3
Расширение режима : CM (complete main)
Режим смешивания : DVD-Video
Продолжительность : 20 м.
Вид битрейта : Постоянный
Битрейт : 384 Кбит/сек
Канал(ы) : 6 канала(ов)
Расположение каналов : Front: L C R, Side: L R, LFE
Частота : 48,0 КГц
Битовая глубина : 16 бит
Метод сжатия : С потерями
Задержка видео : -520 мс.
Размер потока : 55,1 Мбайт (5%)




piratbit.org



Скачать Рапунцель: Запутанная история через торрент http://i4.fastpic.ru/big/2011/0318/06/b9f7cbb737d986bb9616803004f7b406.jpg Скачать фильм Рапунцель: Запутанная история через торрент бесплантно в хорошем качестве Описание: Обаятельный разбойник Флинн путешествует по жизни с легкостью, лишь потому, что он красив, болтлив и удачлив. И казалось, фортуна ... 10 10 2
Info! Золотая раздача, скачанное не засчитывается.
Торрент: Зарегистрирован [2011-03-17 22:57] · скачан: 243 раз
Статус: √ проверено
Размер: 6.2 GB
Как cкачать? Как скачать Рапунцель: Запутанная история через торрент | qTorrent

28-11-2019 20:33  

Отключить всю рекламу на сайте

18-03-2011 01:04 Рапунцель: Запутанная история Скачать торрент  

voovaz спасибо за мультик...и не только piratbit.org



18-03-2011 14:31 Рапунцель: Запутанная история Скачать торрент  

ММеГА Спасибо!piratbit.org



19-03-2011 10:23 Рапунцель: Запутанная история Скачать торрент  

Русского нет. Выбираю русский и начинается немой мультфильм.piratbit.org



23-03-2011 21:30 Рапунцель: Запутанная история Скачать торрент  

Для полного счастья не хватает французской дорожки - песни на французском - отпад!piratbit.org



26-03-2011 16:32 Рапунцель: Запутанная история Скачать торрент  

спасибоpiratbit.org



    Дорогой пользователь! Огромная просьба, поблагодарите релизера, оцените раздачу и оставьте свои комментарий, если Вы скачали Рапунцель: Запутанная история через торрент бесплатно! Внесите свою лепту в развитие PiratBit!
    Комментировать посты могут только пользователи прошедшие не сложную регистрацию
    Показать сообщения:    

    Рапунцель: Запутанная история через торрент
    Скачать бесплатно Рапунцель: Запутанная история
    Рапунцель: Запутанная история скачать торрент
    Рапунцель: Запутанная история смотреть онлайн
    Cкачать фильм Рапунцель: Запутанная история бесплатно
    Рапунцель: Запутанная история скачать торрент в хорошем качестве
    Рапунцель: Запутанная история смотреть онлайн бесплатно в хорошем качестве


    Вы не можете начинать темы
    Вы не можете отвечать на сообщения
    Вы не можете редактировать свои сообщения
    Вы не можете удалять свои сообщения
    Вы не можете голосовать в опросах
    Вы не можете прикреплять файлы к сообщениям
    Вы можете скачивать файлы