Ссылка на приватное зеркало нашего сайта всего за 1$. Внимание количество ограничено!!!

2 сезон

iTunes

1 сезон

1

2 сезон

2 сезон

iTunes

1 сезон

RePack

30

Ultimate

ВАЖНО

ИГРА 18+

pack

RePack

MK11
pack

Забери бонус

RePack

jed

!!Акция!!

Alien_Rage

RePack

fifa19

RePack

Assassins Creed: Odyssey

RePack

NEED FOR SPEED™ PAYBACK

4 сезон

9 сезон

Бесстыжие 9 сезон

Все сериалы

все сериалы на PB.wtf

RePack

FAR CRY 5
  

Рио / Rio (Карлос Салдана / Carlos Saldanha) [2011, мультфильм, мюзикл, комедия, приключения, семейный, DVD9] R5 «Двадцатый Век Фокс СНГ» piratbit.org

Рио через торрент piratbit.org

Размер: 4.83 GB | Добавлен: 9 лет 6 мес. назад | Торрент скачан:1098 раз
Скачать  

06-05-2011 01:23 Рио Скачать торрент  

[font="Georgia"]
Рио / Rio
«Он отправляется в самое удивительное и волшебное место на Земле... домой»
Страна: США
Студия: 20th Century Fox Animation, Blue Sky Studios, Fox Filmes do Brazi, O2 Filmesl
Жанр: мультфильм, мюзикл, комедия, приключения, семейный
Продолжительность: 01:34:36
Год выпуска: 2011
Мировая премьера: 3 апреля 2011
Российская премьера: 7 апреля 2011, «Фокс» 3D
Дата выхода DVD: 12 мая 2011, «Двадцатый Век Фокс СНГ»
Дата выхода Blu-Ray: 8 сентября 2011, «Двадцатый Век Фокс СНГ»
Перевод: Профессиональный (дублированный) [Лицензия]
Cубтитры: русские
Режиссёр: Карлос Салдана / Carlos Saldanha
Роли озвучивали: Карен Дишер, Джейсон Фриччион, София Скарпа Салдана, Лесли Манн, Келли Китон, Джесси Айзенберг, Ванда Сайкес, Джейн Линч, Родриго Санторо, Грасинья Лепоранс
Описание: Попугай-зануда оставляет свою уютную сытую жизнь в клетке и из Миннесоты отправляется в Рио-де-Жанейро, город грез всех и каждого. Неминуемые встречи, препятствия, опасности и любовь к последней представительнице его рода заставляют нашего героя по-другому посмотреть на мир и из скучного домоседа превратиться в милого симпатягу, узнавшего цену дружбе и смелости.
Доп. материалы: Карнавал в тропическом лесу, Блю учится летать, Добро пожаловать в Рио, За кадров в студии Blue Sky, Смотрите в кино и на DVD

Релиз группы:
Качество: DVD9 R5
Формат: DVD-Video
Видео кодек: MPEG2
Аудио кодек: AC3 + DTS
Видео: PAL 16:9 (720x576(0.433)) MPEG Video,25,000 кадр/сек, 4487 Кбит/сек
Аудио #1: Russian (Dolby AC3, 6 ch) 384 Кбит/сек, 48,0 КГц
Аудио #2: Russian (DTS, 6 ch) 755 Кбит/сек, 48,0 КГц
Аудио #3: Ukrainian (Dolby AC3, 6 ch) 384 Кбит/сек, 48,0 КГц



Title: O
Size: 4.83 Gb ( 5 062 714 KBytes ) - DVD-9
Enabled regions: 1, 2, 3, 4, 5, 6, 7, 8

VTS_01 :
Play Length: 01:32:00+00:01:36+00:01:00
Video: PAL 16:9 (720x576) VBR, Auto Letterboxed
Audio:
Russian (Dolby AC3, 6 ch)
Russian (DTS, 6 ch)
Ukrainian (Dolby AC3, 6 ch)
English (Dolby AC3, 6 ch)
Subtitles:
Russian
Russian

VTS_02 :
Play Length: 00:00:27
Video: PAL 16:9 (720x576) VBR, Auto Letterboxed
Audio:
Russian (Dolby AC3, 6 ch)

VTS_03 :
Play Length: 00:01:02
Video: PAL 16:9 (720x576) VBR, Auto Letterboxed
Audio:
English (Dolby AC3, 2 ch)
Subtitles:
Russian
Ukrainian

VTS_04 :
Play Length: 00:00:01
Video: PAL 16:9 (720x576) VBR, Auto Pan&Scan

VTS_05 :
Play Length: 00:02:03+00:01:39+00:04:46+00:02:04
Video: PAL 16:9 (720x576) VBR, Auto Letterboxed
Audio:
Not specified (Dolby AC3, 6 ch)
Not specified (Dolby AC3, 6 ch)
Not specified (Dolby AC3, 6 ch)
English (Dolby AC3, 2 ch)
Subtitles:
Russian
Russian

VTS_06 :
Play Length: 00:02:02
Video: PAL 4:3 (720x576) VBR
Audio:
Not specified (Dolby AC3, 6 ch)
Subtitles:
Russian
Russian
Общее
Полное имя : H:\Новинки 2011\Rio.2011.DVD9\VIDEO_TS\VTS_01_3.VOB
Формат : MPEG-PS
Размер файла : 1024 Мбайт
Продолжительность : 23 м.
Общий поток : 6131 Кбит/сек

Видео
Идентификатор : 224 (0xE0)
Формат : MPEG Video
Версия формата : Version 2
Профиль формата : Main@Main
Параметр BVOP формата : Да
Параметр матрицы формата : По умолчанию
Параметры GOP формата : M=3, N=15
Продолжительность : 23 м.
Вид битрейта : Переменный
Битрейт : 4487 Кбит/сек
Номинальный битрейт : 7500 Кбит/сек
Ширина : 720 пикс.
Высота : 576 пикс.
Соотношение сторон : 16:9
Частота кадров : 25,000 кадр/сек
Стандарт вещания : PAL
Цветовое пространство : YUV
Подвыборка цветности : 4:2:0
Битовая глубина : 8 бит
Тип развёртки : Чересстрочная
Порядок развёртки : Верхнее поле первое
Метод сжатия : С потерями
Бит/(Пиксели*Кадры) : 0.433
Размер потока : 749 Мбайт (73%)

Аудио #1
Идентификатор : 189 (0xBD)-128 (0x80)
Формат : AC-3
Формат/Информация : Audio Coding 3
Расширение режима : CM (complete main)
Режим смешивания : DVD-Video
Продолжительность : 23 м.
Вид битрейта : Постоянный
Битрейт : 384 Кбит/сек
Канал(ы) : 6 канала(ов)
Расположение каналов : Front: L C R, Side: L R, LFE
Частота : 48,0 КГц
Битовая глубина : 16 бит
Метод сжатия : С потерями
Задержка видео : -24 мс.
Размер потока : 64,1 Мбайт (6%)

Аудио #2
Идентификатор : 189 (0xBD)-130 (0x82)
Формат : AC-3
Формат/Информация : Audio Coding 3
Расширение режима : CM (complete main)
Режим смешивания : DVD-Video
Продолжительность : 23 м.
Вид битрейта : Постоянный
Битрейт : 384 Кбит/сек
Канал(ы) : 6 канала(ов)
Расположение каналов : Front: L C R, Side: L R, LFE
Частота : 48,0 КГц
Битовая глубина : 16 бит
Метод сжатия : С потерями
Задержка видео : -24 мс.
Размер потока : 64,1 Мбайт (6%)

Аудио #3
Идентификатор : 189 (0xBD)-137 (0x89)
Формат : DTS
Формат/Информация : Digital Theater Systems
Режим смешивания : DVD-Video
Продолжительность : 23 м.
Вид битрейта : Постоянный
Битрейт : 755 Кбит/сек
Канал(ы) : 6 канала(ов)
Расположение каналов : Front: L C R, Side: L R, LFE
Частота : 48,0 КГц
Битовая глубина : 24 бит
Метод сжатия : С потерями
Задержка видео : -3 мс.
Размер потока : 126 Мбайт (12%)










piratbit.org



Скачать Рио через торрент http://i20.fastpic.ru/big/2011/0506/a4/a18dfc114c7a3124f4530d1012e251a4.jpg Скачать фильм Рио через торрент бесплантно в хорошем качестве Описание: Попугай-зануда оставляет свою уютную сытую жизнь в клетке и из Миннесоты отправляется в Рио-де-Жанейро, город грез всех и ... 9 10 4
Info! Золотая раздача, скачанное не засчитывается.
Торрент: Зарегистрирован [2011-05-06 01:23] · скачан: 1 098 раз
Статус: √ проверено
Размер: 4.83 GB
Как cкачать? Как скачать Рио через торрент | qTorrent

28-11-2019 20:33  

Отключить всю рекламу на сайте

06-05-2011 01:34 Рио Скачать торрент  

вот чо интересно - на трекерах дубляж раньше, чем официальный выход :)piratbit.org



06-05-2011 01:36 Рио Скачать торрент  

и таки по скриншотам - не очень-то на двд похож, чот как-то размытенько :(piratbit.org



06-05-2011 12:49 Рио Скачать торрент  

sergunka писал(а):

и таки по скриншотам - не очень-то на двд похож, чот как-то размытенько :(

Все вопросы по поводу качества картинке к 20 фоксу.Они последнее время халтурят ужасно!piratbit.org



06-05-2011 12:56 Рио Скачать торрент  

та вот просто дата выхода двд и дата релиза смущает - о каких претензиях к лисам речь, если они еще не выпустили двд?piratbit.org



06-05-2011 14:30 Рио Скачать торрент  

sergunka писал(а):

та вот просто дата выхода двд и дата релиза смущает - о каких претензиях к лисам речь, если они еще не выпустили двд?

В продажу он поступит по дате.Но для этого сначала диск надо создать.Вот это и есть диск с завода.Потом 12 мая купите и уведите,что тоже самое!piratbit.org



12-05-2011 23:42 Рио Скачать торрент  

Обалденный мульт.Для DVD качество хорошее. piratbit.org



05-06-2011 23:52 Рио Скачать торрент  

Качество, конечно, не фонтан, но удобоваримое, зато звук DTS отличный.
____
Собственно, забыл добавить: СПАСИБО! Давно хотел посмотреть. piratbit.org



21-08-2011 11:51 Рио Скачать торрент  

фильм класс! всем советую посмотреть!piratbit.org



23-01-2012 16:55 Рио Скачать торрент  

Дочке понравилось, и это главное. Спасиб .piratbit.org



    Дорогой пользователь! Огромная просьба, поблагодарите релизера, оцените раздачу и оставьте свои комментарий, если Вы скачали Рио через торрент бесплатно! Внесите свою лепту в развитие PiratBit!
    Комментировать посты могут только пользователи прошедшие не сложную регистрацию
    Показать сообщения:    

    Рио через торрент
    Скачать бесплатно Рио
    Рио скачать торрент
    Рио смотреть онлайн
    Cкачать фильм Рио бесплатно
    Рио скачать торрент в хорошем качестве
    Рио смотреть онлайн бесплатно в хорошем качестве


    Вы не можете начинать темы
    Вы не можете отвечать на сообщения
    Вы не можете редактировать свои сообщения
    Вы не можете удалять свои сообщения
    Вы не можете голосовать в опросах
    Вы не можете прикреплять файлы к сообщениям
    Вы можете скачивать файлы