Ссылка на приватное зеркало нашего сайта всего за 1$. Внимание количество ограничено!!!

2 сезон

iTunes

iTunes

1

iTunes

iTunes

iTunes

WEBRip

iTunes

30
pack

Вам бонус

ВАЖНО

!!Акция!!

Alien_RageХит недели

RePack

Horizon Zero Dawn

ИГРА 18+

pack

RePack

jed

!!Акция!!

Alien_Rage

RePack

fifa19

RePack

Assassins Creed: Odyssey

RePack

NEED FOR SPEED™ PAYBACK

4 сезон

9 сезон

Бесстыжие 9 сезон

Все сериалы

все сериалы на PB.wtf

RePack

FAR CRY 5
  

Ушу / Wushu (Энтони Сзето) [2008 г., Боевик, драма, DVDRip] piratbit.org

Ушу через торрент piratbit.org

Размер: 1.36 GB | Добавлен: 9 лет 4 мес. назад | Торрент скачан:84 раза
Скачать  

22-05-2011 09:25 Ушу Скачать торрент  

Ушу
Wushu



Год выпуска: 2008
Страна: Гонконг
Жанр: Боевик, драма
Продолжительность: 01:38:17
Перевод: Любительский (двухголосый)

Режиссер: Энтони Сзето

В ролях: Саммо Хунг Кам-Бо, Ячао Ванг, Донг Вэй, Фэн Лианг, Хин Лью, Йао Ши, Джин Чжан, Нэн Ти, Джин Хе, Вэй Чунг Мак

Описание: Действие фильма разворачивается в школе боевых искусств на 3000 учеников, расположенной в отдаленной провинции Китая Шаньдун. Фильм рассказывает нам историю юноши, не обделенного талантом бойца саньда Ли. Он влюблен в девушку, что занимается ушу. В своих попытках обратить на себя ее внимание, Ли идет против воли своего тренера, мечтающего сделать из него чемпиона провинции по саньда, и начинает заниматься ушу. Распрощавшись с шансом стать чемпионом по саньда и приняв на себя ношу быть никем в мире ушу, Ли делает все, чтобы его любовь обратила на него внимание, и одновременно старается не вылететь из школы за неуспеваемость.

Семпл

Качество: DVDRip
Формат: AVI
Видео кодек: XviD
Аудио кодек: AC3
Видео: XviD, 1 595 Kbps, 720 x 304 pixels, 23.976 fps, Bits/(Pixel*Frame) : 0.304
Аудио: AC-3 , 384 Kbps, 2 channels, 48.0 KHz
Complete name Ushu.2008.XviD.DVDRip.KinoZalSat.avi
Format : AVI
Format/Info : Audio Video Interleave
File size : 1.36 GiB
Duration : 1h 38mn
Overall bit rate : 1 988 Kbps
Writing application : VirtualDubMod 1.5.10.2 (build 2540/release)
Writing library : VirtualDubMod build 2540/release

Video
ID : 0
Format : MPEG-4 Visual
Format profile : Advanced Simple@L5
Format settings, BVOP : Yes
Format settings, QPel : No
Format settings, GMC : No warppoints
Format settings, Matrix : Default (H.263)
Codec ID : XVID
Codec ID/Hint : XviD
Duration : 1h 38mn
Bit rate : 1 595 Kbps
Width : 720 pixels
Height : 304 pixels
Display aspect ratio : 2.35:1
Frame rate : 23.976 fps
Color space : YUV
Chroma subsampling : 4:2:0
Bit depth : 8 bits
Scan type : Progressive
Bits/(Pixel*Frame) : 0.304
Stream size : 1.09 GiB (80%)
Writing library : XviD 1.2.1 (UTC 2008-12-04)

Audio
ID : 1
Format : AC-3
Format/Info : Audio Coding 3
Mode extension : CM (complete main)
Codec ID : 2000
Duration : 1h 38mn
Bit rate mode : Constant
Bit rate : 384 Kbps
Channel(s) : 2 channels
Channel positions : Front: L R
Sampling rate : 48.0 KHz
Bit depth : 16 bits
Stream size : 270 MiB (19%)
Alignment : Split accross interleaves
Interleave, duration : 42 ms (1.00 video frame)
Interleave, preload duration : 500 ms





piratbit.org



Скачать Ушу через торрент http://i17.fastpic.ru/big/2011/0522/23/0adcc19ffea73a4991908b9f4048a123.png Скачать фильм Ушу через торрент бесплантно в хорошем качестве Описание: Действие фильма разворачивается в школе боевых искусств на 3000 учеников, расположенной в отдаленной провинции Китая Шаньдун. ... 7 10 1
Info! Золотая раздача, скачанное не засчитывается.
Торрент: Зарегистрирован [2011-05-22 09:25] · скачан: 84 раз
Статус: √ проверено
Размер: 1.36 GB
Как cкачать? Как скачать Ушу через торрент | qTorrent

% Раздел Тема Автор DL S | L
Фильмы 2006-2008 [ 702 MB ] Воин ушу / Wushu Warrior [2008 DVDRip] кэп Скачать
1 | 0
Фильмы 2006-2008 [ 695 MB ] Ушу / Wushu [2008 DVDRip] vlaskuzmich Скачать
1 | 0

28-11-2019 20:33  

Отключить всю рекламу на сайте

22-05-2011 21:08 Ушу Скачать торрент  

А рип то мой ))могли и баннер релиз-группы поставить
Ushu.2008.XviD.DVDRip.KinoZalSat.avi )))piratbit.org



    Дорогой пользователь! Огромная просьба, поблагодарите релизера, оцените раздачу и оставьте свои комментарий, если Вы скачали Ушу через торрент бесплатно! Внесите свою лепту в развитие PiratBit!
    Комментировать посты могут только пользователи прошедшие не сложную регистрацию
    Показать сообщения:    

    Ушу через торрент
    Скачать бесплатно Ушу
    Ушу скачать торрент
    Ушу смотреть онлайн
    Cкачать фильм Ушу бесплатно
    Ушу скачать торрент в хорошем качестве
    Ушу смотреть онлайн бесплатно в хорошем качестве


    Вы не можете начинать темы
    Вы не можете отвечать на сообщения
    Вы не можете редактировать свои сообщения
    Вы не можете удалять свои сообщения
    Вы не можете голосовать в опросах
    Вы не можете прикреплять файлы к сообщениям
    Вы можете скачивать файлы