2 сезон

iTunes

MVO

1

2 сезон

iTunes

iTunes

1 сезон

RePack

30

Ultimate

ВАЖНО

ИГРА 18+

pack

RePack

MK11
pack

Легкие деньги

RePack

jed

RePack

fifa19

RePack

RDR2

RePack

NEED FOR SPEED™ PAYBACK

4 сезон

9 сезон

Бесстыжие 9 сезон

Все сериалы

все сериалы на PB.wtf

RePack

FAR CRY 5

Anonymous, добрый вечер, мы не успеваем собрать деньги на оплату серверов за декабрь и январь, помогите нам пожалуйста в это трудное время. В качестве благодарности мы отключим Вам всю рекламу на сайте (укажите свой ник в строку Ваше имя)!

×
  
Magnet ссылка

Кромсающий: Инстинкты ревности / Flaenset: Jalousiens Instinkter (Хейни Грюнбаум) [2000 г., ужасы, слэшер, сплэттер, трэш, DVDRip] piratbit.org

Кромсающий: Инстинкты ревности через торрент piratbit.org

Размер: 666 MB | Добавлен: 9 лет 7 мес. назад | Торрент скачан:48 раз
Скачать  

24-05-2011 19:15 Кромсающий: Инстинкты ревности Скачать торрент  

Кромсающий: Инстинкты ревности
Flaenset: Jalousiens Instinkter

Год выпуска: 2000
Страна: Дания
Жанр: ужасы, слэшер, сплэттер, трэш
Продолжительность: 01:18:00
Перевод: Любительский (одноголосый закадровый) - zaswer5

Режиссер: Хейни Грюнбаум

В ролях: Томас Бо Ларсен, Josephine Akvama, Michael Brendstrup, Tusnelda Frellesvig, Ларс Миккельсен, Дженс Оккинг, Mikael Fleron, Эллен Хиллингсо и др.

Описание: Ян был обычным нормальным человеком, до того момента пока не застал свою жену в объятиях другого мужчины. С этого дня жизнь Яна пошла под откос. Из обычного человека он превратился в психопата-убийцу, который насилует, убивает, и к тому же, иногда не прочь побаловаться человечинкой...

Семпл

[ [/url]

Качество: DVDRip
Формат: AVI
Видео кодек: XviD
Аудио кодек: MP3
Видео: XviD, 992 Kbps, 720 x 400 pixels, 25.000 fps, Bits/(Pixel*Frame) : 0.138
Аудио: MP3 , 192 Kbps, 2 channels, 44.1 KHz
Complete name Кромсающий-Инстинкты ревности VO zaswer5.avi
Format : AVI
Format/Info : Audio Video Interleave
File size : 666 MiB
Duration : 1h 18mn
Overall bit rate : 1 194 Kbps
Writing application : VirtualDubModRus 1.5.10.2 (build 2542/release)
Writing library : VirtualDubMod build 2542/release

Video
ID : 0
Format : MPEG-4 Visual
Format profile : Advanced Simple@L5
Format settings, BVOP : Yes
Format settings, QPel : No
Format settings, GMC : No warppoints
Format settings, Matrix : Custom
Codec ID : XVID
Codec ID/Hint : XviD
Duration : 1h 18mn
Bit rate : 992 Kbps
Width : 720 pixels
Height : 400 pixels
Display aspect ratio : 16:9
Frame rate : 25.000 fps
Color space : YUV
Chroma subsampling : 4:2:0
Bit depth : 8 bits
Scan type : Progressive
Bits/(Pixel*Frame) : 0.138
Stream size : 554 MiB (83%)
Writing library : XviD 1.2.0.dev47 (UTC 2006-11-01)

Audio
ID : 1
Format : MPEG Audio
Format version : Version 1
Format profile : Layer 3
Codec ID : 55
Codec ID/Hint : MP3
Duration : 1h 18mn
Bit rate mode : Constant
Bit rate : 192 Kbps
Channel(s) : 2 channels
Sampling rate : 44.1 KHz
Stream size : 107 MiB (16%)
Alignment : Split accross interleaves
Interleave, duration : 40 ms (1.00 video frame)
Interleave, preload duration : 500 ms



piratbit.org



Скачать Кромсающий: Инстинкты ревности через торрент http://i22.fastpic.ru/big/2011/0524/37/0889919b2f4890270a10bed08c864f37.jpg Скачать фильм Кромсающий: Инстинкты ревности через торрент бесплантно в хорошем качестве Описание: Ян был обычным нормальным человеком, до того момента пока не застал свою жену в объятиях другого мужчины. С этого дня жизнь Яна ... 4.7 10 3
Info! Золотая раздача, скачанное не засчитывается.
Торрент: Зарегистрирован [2011-05-24 19:15] · скачан: 48 раз
Статус: √ проверено
Размер: 666 MB
Как cкачать? Как скачать Кромсающий: Инстинкты ревности через торрент | UTorrent



Последний раз редактировалось: smaster (2011-09-03 18:30), всего редактировалось 1 раз

28-11-2019 20:33  

Отключить всю рекламу на сайте

25-05-2011 03:43 Кромсающий: Инстинкты ревности Скачать торрент  

как фильм?piratbit.org



03-09-2011 17:41 Кромсающий: Инстинкты ревности Скачать торрент  

сисько-писько-треш :suicide:piratbit.org



    Дорогой пользователь! Огромная просьба, поблагодарите релизера, оцените раздачу и оставьте свои комментарий, если Вы скачали Кромсающий: Инстинкты ревности через торрент бесплатно! Внесите свою лепту в развитие PiratBit!
    Комментировать посты могут только пользователи прошедшие не сложную регистрацию
    Показать сообщения:    

    Кромсающий: Инстинкты ревности через торрент
    Скачать бесплатно Кромсающий: Инстинкты ревности
    Кромсающий: Инстинкты ревности скачать торрент
    Кромсающий: Инстинкты ревности смотреть онлайн
    Cкачать фильм Кромсающий: Инстинкты ревности бесплатно
    Кромсающий: Инстинкты ревности скачать торрент в хорошем качестве
    Кромсающий: Инстинкты ревности смотреть онлайн бесплатно в хорошем качестве


    Вы не можете начинать темы
    Вы не можете отвечать на сообщения
    Вы не можете редактировать свои сообщения
    Вы не можете удалять свои сообщения
    Вы не можете голосовать в опросах
    Вы не можете прикреплять файлы к сообщениям
    Вы можете скачивать файлы