новый адрес
Ссылка на приватное зеркало всего за 1$. Внимание количество ограничено!!!

iTunes

1+1

iTunes

мы

WEB-DL

1

iTunes

Чернобыль

iTunes

Ральф против интернета

Лицензия

ПШазам

Лицензия

Оно 2

Лицензия

30
pack

Вам бонус

ВАЖНО

!!Акция!!

Alien_RageХит недели

RePack

Resident Evil 21

ИГРА 18+

pack

RePack

jed

!!Акция!!

Alien_Rage

RePack

fifa19

RePack

Assassins Creed: Odyssey

RePack

NEED FOR SPEED™ PAYBACK

3 сезон

9 сезон

Бесстыжие 9 сезон

Все сериалы

все сериалы на PB.wtf

RePack

FAR CRY 5
Ребята, катастрофически не хватает 1900р. для оплаты серверов за Октябрь (всвязи с блокировками трафик упал в 3 раза), 1-2р., выручайте.
  

Гномео и Джульетта / Gnomeo & Juliet (Келли Эсбёри / Kelly Asbury) [2011, мультфильм, фэнтези, мелодрама, комедия, приключения, DVD9] R5 «West Video» piratbit.org

Гномео и Джульетта через торрент piratbit.org

Размер: 7.7 GB | Добавлен: 8 лет 6 мес. назад | Торрент скачан:55 раз
Скачать  

26-05-2011 20:52 Гномео и Джульетта Скачать торрент  

[font="Georgia"]
Гномео и Джульетта / Gnomeo & Juliet
«Нет повести прикольнее на свете...»
Страна: США, Великобритания
Студия: Rocket Pictures, Starz Animation, Touchstone Pictures
Жанр: мультфильм, фэнтези, мелодрама, комедия, приключения
Продолжительность: 01:20:22
Год выпуска: 2011
Мировая премьера: 23 января 2011
Российская премьера: 17 февраля 2011, «West» 3D
Дата выхода DVD: 24 мая 2011, «West Video»
Дата выхода Blu-Ray: 24 мая 2011, «West Video»
Перевод: Профессиональный (дублированный) [Лицензия]
Cубтитры: русские, украинские
Оригинальная аудиодорожка: английский
Режиссёр: Келли Эсбёри / Kelly Asbury
Роли озвучивали: Джеймс МакЭвой, Эмили Блант, Эшли Дженсен, Майкл Кейн, Мэтт Лукас, Джим Каммингс, Мэгги Смит, Джейсон Стэтхэм, Оззи Осборн, Стефен Мерчант, Джули Уолтерс, Халк Хоган
Описание: Интерпретация пьесы Уильяма Шекспира, в которой противоборствуют семьи садовых гномов и гномов домашних.
Доп. материалы: Элтон строит сад, лягушачья болтовня, альтернативное окончание и удаленные сцены, оленёнок тьмы, муз.трек

Качество: DVD9 R5
Формат: DVD-Video
Видео кодек: MPEG2
Аудио кодек: AC3 + DTS
Видео: PAL 16:9 (720x576(0.633)) MPEG Video,25,000 кадр/сек, 6566 Кбит/сек
Аудио #1: Russian (Dolby AC3, 6 ch) 384 Кбит/сек, 48,0 КГц
Аудио #2: English (Dolby AC3, 6 ch) 384 Кбит/сек, 48,0 КГц
Аудио #3: Ukrainian (Dolby AC3, 6 ch) 384 Кбит/сек, 48,0 КГц
Аудио #4: Russian (DTS, 5 ch) 768 Кбит/сек, 48,0 КГц



Title: Мой диск
Size: 7.70 Gb ( 8 076 438 KBytes ) - DVD-9
Enabled regions: 1, 2, 3, 4, 5, 6, 7, 8

VTS_01 :
Play Length: 00:00:23
Video: PAL 4:3 (720x576) VBR

VTS_02 :
Play Length: 01:20:22
Video: PAL 16:9 (720x576) VBR, Auto Pan&Scan, Auto Letterboxed
Audio:
Russian (Dolby AC3, 6 ch)
English (Dolby AC3, 6 ch)
Ukrainian (Dolby AC3, 6 ch)
Russian (DTS, 5 ch)
Subtitles:
Russian
Ukrainian

VTS_03 :
Play Length: 00:05:32
Video: PAL 16:9 (720x576) VBR, Auto Letterboxed
Audio:
Russian (Dolby AC3, 2 ch)
English (Dolby AC3, 2 ch)

VTS_04 :
Play Length: 00:01:41
Video: PAL 16:9 (720x576) VBR, Auto Letterboxed
Audio:
Russian (Dolby AC3, 2 ch)
English (Dolby AC3, 2 ch)

VTS_05 :
Play Length: 00:45:25
Video: PAL 16:9 (720x576) VBR, Auto Letterboxed
Audio:
Russian (Dolby AC3, 2 ch)
English (Dolby AC3, 2 ch)

VTS_06 :
Play Length: 00:01:26
Video: PAL 16:9 (720x576) VBR, Auto Letterboxed
Audio:
Russian (Dolby AC3, 2 ch)
English (Dolby AC3, 2 ch)

VTS_07 :
Play Length: 00:01:28
Video: PAL 16:9 (720x576) VBR, Auto Letterboxed
Audio:
English (Dolby AC3, 2 ch)
English (Dolby AC3, 2 ch)
Общее
Полное имя : F:\Новинки 2011\Gnomeo.i.Dzhuiletta.2011.DVD9\VIDEO_TS\VTS_02_1.VOB
Формат : MPEG-PS
Размер файла : 1024 Мбайт
Продолжительность : 16 м.
Общий поток : 8645 Кбит/сек

Видео
Идентификатор : 224 (0xE0)
Формат : MPEG Video
Версия формата : Version 2
Профиль формата : Main@Main
Параметр BVOP формата : Да
Параметр матрицы формата : По умолчанию
Продолжительность : 16 м.
Вид битрейта : Переменный
Битрейт : 6566 Кбит/сек
Номинальный битрейт : 9800 Кбит/сек
Ширина : 720 пикс.
Высота : 576 пикс.
Соотношение сторон : 16:9
Частота кадров : 25,000 кадр/сек
Стандарт вещания : PAL
Цветовое пространство : YUV
Подвыборка цветности : 4:2:0
Битовая глубина : 8 бит
Тип развёртки : Чересстрочная
Порядок развёртки : Верхнее поле первое
Метод сжатия : С потерями
Бит/(Пиксели*Кадры) : 0.633
Размер потока : 778 Мбайт (76%)

Аудио #1
Идентификатор : 189 (0xBD)-128 (0x80)
Формат : AC-3
Формат/Информация : Audio Coding 3
Расширение режима : CM (complete main)
Режим смешивания : DVD-Video
Продолжительность : 16 м.
Вид битрейта : Постоянный
Битрейт : 384 Кбит/сек
Канал(ы) : 6 канала(ов)
Расположение каналов : Front: L C R, Side: L R, LFE
Частота : 48,0 КГц
Битовая глубина : 16 бит
Метод сжатия : С потерями
Размер потока : 45,5 Мбайт (4%)

Аудио #2
Идентификатор : 189 (0xBD)-129 (0x81)
Формат : AC-3
Формат/Информация : Audio Coding 3
Расширение режима : CM (complete main)
Режим смешивания : DVD-Video
Продолжительность : 16 м.
Вид битрейта : Постоянный
Битрейт : 384 Кбит/сек
Канал(ы) : 6 канала(ов)
Расположение каналов : Front: L C R, Side: L R, LFE
Частота : 48,0 КГц
Битовая глубина : 16 бит
Метод сжатия : С потерями
Размер потока : 45,5 Мбайт (4%)

Аудио #3
Идентификатор : 189 (0xBD)-130 (0x82)
Формат : AC-3
Формат/Информация : Audio Coding 3
Расширение режима : CM (complete main)
Режим смешивания : DVD-Video
Продолжительность : 16 м.
Вид битрейта : Постоянный
Битрейт : 384 Кбит/сек
Канал(ы) : 6 канала(ов)
Расположение каналов : Front: L C R, Side: L R, LFE
Частота : 48,0 КГц
Битовая глубина : 16 бит
Метод сжатия : С потерями
Размер потока : 45,5 Мбайт (4%)

Аудио #4
Идентификатор : 189 (0xBD)-139 (0x8B)
Формат : DTS
Формат/Информация : Digital Theater Systems
Режим смешивания : DVD-Video
Продолжительность : 16 м.
Вид битрейта : Постоянный
Битрейт : 755 Кбит/сек
Канал(ы) : 6 канала(ов)
Расположение каналов : Front: L C R, Side: L R, LFE
Частота : 48,0 КГц
Битовая глубина : 24 бит
Метод сжатия : С потерями
Размер потока : 89,3 Мбайт (9%)










piratbit.org



Скачать Гномео и Джульетта через торрент http://i2.imageban.ru/out/2011/05/26/e9b41ebb4962d623a667f9c07d2f1e07.jpg Скачать фильм Гномео и Джульетта через торрент бесплантно в хорошем качестве Описание: Интерпретация пьесы Уильяма Шекспира, в которой противоборствуют семьи садовых гномов и гномов домашних.Доп. материалы: Элтон ... 5 10 7
Info! Золотая раздача, скачанное не засчитывается.
Торрент: Зарегистрирован [2011-05-26 20:52] · скачан: 55 раз
Статус: √ проверено
Размер: 7.7 GB
Как cкачать? Как скачать Гномео и Джульетта через торрент | qTorrent

28-11-2019 20:33  

Отключить всю рекламу на сайте

    Дорогой пользователь! Огромная просьба, поблагодарите релизера, оцените раздачу и оставьте свои комментарий, если Вы скачали Гномео и Джульетта через торрент бесплатно! Внесите свою лепту в развитие PiratBit!
    Комментировать посты могут только пользователи прошедшие не сложную регистрацию
    Показать сообщения:    

    Гномео и Джульетта через торрент
    Скачать бесплатно Гномео и Джульетта
    Гномео и Джульетта скачать торрент
    Гномео и Джульетта смотреть онлайн
    Cкачать фильм Гномео и Джульетта бесплатно
    Гномео и Джульетта скачать торрент в хорошем качестве
    Гномео и Джульетта смотреть онлайн бесплатно в хорошем качестве


    Вы не можете начинать темы
    Вы не можете отвечать на сообщения
    Вы не можете редактировать свои сообщения
    Вы не можете удалять свои сообщения
    Вы не можете голосовать в опросах
    Вы не можете прикреплять файлы к сообщениям
    Вы можете скачивать файлы