новый адрес пиратбит piratbit
Мега распродажа FORZA HORIZON 4 ULTIMATE+ВСЕ DLC+ОНЛАЙН всего за 499р. 349 руб. (супер цена). Внимание количество ограничено!!!

iTunes

1+1

iTunes

мы

iTunes

1

iTunes

Чернобыль

iTunes

Ральф против интернета

Лицензия

ПШазам

Лицензия

Игра престолов

Лицензия

30
pack

ВАЖНО

!!Акция!!

Alien_RageХит недели

RePack

Resident Evil 21

ИГРА 18+

pack

RePack

Metro:Exodus

!!Акция!!

Alien_Rage

RePack

fifa19

RePack

Assassins Creed: Odyssey

RePack

NEED FOR SPEED™ PAYBACK

3 сезон

9 сезон

Бесстыжие 9 сезон

Все сериалы

все сериалы на PB.wtf

RePack

FAR CRY 5
Ребята, катастрофически не хватает 1900р. для оплаты серверов за Октябрь (всвязи с блокировками трафик упал в 3 раза), 1-2р., выручайте.
  

Смелый большой панда / Little Big Panda (Грег Манваринг / Greg Manwaring) [2011, мультфильм, DVD5] R5 piratbit.org

Смелый большой панда через торрент piratbit.org

Размер: 3.17 GB | Добавлен: 8 лет 5 мес. назад | Торрент скачан:196 раз
Скачать  

30-05-2011 20:47 Смелый большой панда Скачать торрент  

[font="Georgia"]
Смелый большой панда / Little Big Panda
Страна: Германия, Китай
Студия: Angels Avenue, Benchmark Entertainment Picture Productions, Juventy Films, ORB Filmproduktion, uFilm, Yisang Media Investment
Жанр: мультфильм
Год выпуска: 2011
Мировая премьера: 3 февраля 2011
Российская премьера: 5 мая 2011, «Люксор» 3D
Дата выхода DVD: 26 мая 2011
Продолжительность: 01:27:00
Перевод: Профессиональный (дублированный) [Лицензия]
Субтитры: нет
Режиссёр: Грег Манваринг / Greg Manwaring
Роли дублировали: Александра Остроухова, Андрей Чижов, Вероника Саркисова, Дмитрий Курта
Описание: Мультфильм рассказывает о смелых пандах спасающих долину панд от наводнения.
Доп. материалы: нет

Качество: DVD5 R5
Формат: DVD-Video
Видео кодек: MPEG2
Аудио кодек: AC3
Видео: PAL 16:9 (720x576(0.436)) MPEG Video,25,000 кадр/сек, 4516 Кбит/сек
Аудио: Russian (Dolby AC3, 6 ch) 448 Кбит/сек, 48,0 КГц



Title: Мой диск
Size: 3.17 Gb ( 3 326 960 KBytes ) - DVD-5
Enabled regions: 1, 2, 3, 4, 5, 6, 7, 8

VTS_01 :
Play Length: 00:00:19
Video: PAL 4:3 (720x576) VBR
Audio:
Russian (Dolby AC3, 2 ch)

VTS_02 :
Play Length: 01:27:25
Video: PAL 16:9 (720x576) VBR, Auto Letterboxed
Audio:
Russian (Dolby AC3, 6 ch)
Общее
Полное имя : F:\Новинки 2011\Smeliy.bolshoy.panda.2011.DVD5\VIDEO_TS\VTS_02_1.VOB
Формат : MPEG-PS
Размер файла : 1024 Мбайт
Продолжительность : 28 м.
Общий поток : 5065 Кбит/сек

Видео
Идентификатор : 224 (0xE0)
Формат : MPEG Video
Версия формата : Version 2
Профиль формата : Main@Main
Параметр BVOP формата : Да
Параметр матрицы формата : По умолчанию
Параметры GOP формата : M=3, N=12
Продолжительность : 28 м.
Вид битрейта : Переменный
Битрейт : 4516 Кбит/сек
Номинальный битрейт : 8500 Кбит/сек
Ширина : 720 пикс.
Высота : 576 пикс.
Соотношение сторон : 16:9
Частота кадров : 25,000 кадр/сек
Стандарт вещания : PAL
Цветовое пространство : YUV
Подвыборка цветности : 4:2:0
Битовая глубина : 8 бит
Тип развёртки : Чересстрочная
Порядок развёртки : Верхнее поле первое
Метод сжатия : С потерями
Бит/(Пиксели*Кадры) : 0.436
Размер потока : 913 Мбайт (89%)

Аудио
Идентификатор : 189 (0xBD)-128 (0x80)
Формат : AC-3
Формат/Информация : Audio Coding 3
Расширение режима : CM (complete main)
Режим смешивания : DVD-Video
Продолжительность : 28 м.
Вид битрейта : Постоянный
Битрейт : 448 Кбит/сек
Канал(ы) : 6 канала(ов)
Расположение каналов : Front: L C R, Side: L R, LFE
Частота : 48,0 КГц
Битовая глубина : 16 бит
Метод сжатия : С потерями
Размер потока : 90,6 Мбайт (9%)










piratbit.org



Скачать Смелый большой панда через торрент http://i1.imageban.ru/out/2011/05/31/d22d3587e1bd0bab9920f4529688d84b.jpg Скачать фильм Смелый большой панда через торрент бесплантно в хорошем качестве Описание: Мультфильм рассказывает о смелых пандах спасающих долину панд от наводнения.Доп. материалы: нет ... 10 10 1
Info! Золотая раздача, скачанное не засчитывается.
Торрент: Зарегистрирован [2011-05-30 20:47] · скачан: 196 раз
Статус: √ проверено
Размер: 3.17 GB
Как cкачать? Как скачать Смелый большой панда через торрент | qTorrent


>> Регистрируемся здесь <<






Отзывы и комментарии о схеме читаем и пишем здесь: ---> Отзывы и комментарии о схеме

Новые благодарочки в телеграм довольных пользователей:
скриншот   скриншот   скриншот   скриншот   скриншот
    Дорогой пользователь! Огромная просьба, поблагодарите релизера, оцените раздачу и оставьте свои комментарий, если Вы скачали Смелый большой панда через торрент бесплатно! Внесите свою лепту в развитие PiratBit!
    Комментировать посты могут только пользователи прошедшие не сложную регистрацию
    Показать сообщения:    

    Смелый большой панда через торрент
    Скачать бесплатно Смелый большой панда
    Смелый большой панда скачать торрент
    Смелый большой панда смотреть онлайн
    Cкачать фильм Смелый большой панда бесплатно
    Смелый большой панда скачать торрент в хорошем качестве
    Смелый большой панда смотреть онлайн бесплатно в хорошем качестве


    Вы не можете начинать темы
    Вы не можете отвечать на сообщения
    Вы не можете редактировать свои сообщения
    Вы не можете удалять свои сообщения
    Вы не можете голосовать в опросах
    Вы не можете прикреплять файлы к сообщениям
    Вы можете скачивать файлы