Ссылка на приватное зеркало нашего сайта всего за 1$. Внимание количество ограничено!!!

2 сезон

iTunes

1 сезон

1

2 сезон

2 сезон

iTunes

1 сезон

RePack

30

Новинка

ВАЖНО

ИГРА 18+

pack

RePack

MK11
pack

Забери бонус

RePack

jed

!!Акция!!

Alien_Rage

RePack

fifa19

RePack

Assassins Creed: Odyssey

RePack

NEED FOR SPEED™ PAYBACK

4 сезон

9 сезон

Бесстыжие 9 сезон

Все сериалы

все сериалы на PB.wtf

RePack

FAR CRY 5
  

Зеленый Фонарь: Изумрудные рыцари / Green Lantern: Emerald Knights (Крис Беркли, Лоурен Монтгомери, Джей Олива / Chris Berkeley, Lauren Montgomery, Jay Oliva) [2011, мультфильм, фантастика, приключения, DVD9] R5 «CP-Digital» piratbit.org

Зеленый Фонарь: Изумрудные рыцари через торрент piratbit.org

Размер: 4.59 GB | Добавлен: 9 лет 5 мес. назад | Торрент скачан:110 раз
Скачать  

10-06-2011 18:03 Зеленый Фонарь: Изумрудные рыцари Скачать торрент  

[font="Georgia"]
Зеленый Фонарь: Изумрудные рыцари / Green Lantern: Emerald Knights
«Witness the Color of Will»
Страна: США
Студия: DC Entertainment, Warner Bros. Animation, Warner Premiere, Wut It Is
Жанр: мультфильм, фантастика, приключения
Год выпуска: 2011
Мировая премьера: 9 апреля 2011
Дата выхода DVD: 9 июня 2011, «CP-Digital»
Продолжительность: 01:41:22
Перевод: Профессиональный (дублированный) [Лицензия]
Cубтитры: русские, английские, мадьярские, польские, португальские, испанские
Оригинальная аудиодорожка: английский
Режиссёр: Крис Беркли, Лоурен Монтгомери, Джей Олива / Chris Berkeley, Lauren Montgomery, Jay Oliva
Роли озвучивали: Натан Филлион, Джейсон Айзекс, Элизабет Мосс, Келли Ху, Арнольд Вослоу, Стивен Блум, Генри Роллинз, Родди Пайпер, Брюс Томас, Уэйд Уильямс
Описание: Этот полнометражный анимационный фильм по Вселенной DC Comics открывает нам богатую мифологию мира Зеленого Фонаря в шести взаимосвязанных эпизодах. Ожидая сражения с Кроной, древним врагом Стражей Вселенной, Зеленые Фонари Земли: Хэл Джордан, Килавог, Синестро и другие бойцы Корпуса Зеленых Фонарей рассказывают новичку-рекруту Арисии о своих былых приключениях - от истории о Первом Фонаре до зловещих событий, которые привели к Самой Черной Ночи Корпуса!
Доп. материалы: Удаленные сцены

Релиз группы:
Качество: DVD9 R5
Формат: DVD-Video
Видео кодек: MPEG2
Аудио кодек: AC3
Видео: PAL 16:9 (720x576(0.508)) MPEG Video,25,000 кадр/сек, 5264 Кбит/сек
Аудио #1: English (Dolby AC3, 6 ch) 384 Кбит/сек, 48,0 КГц
Аудио #2: Magyar (Dolby AC3, 6 ch) 384 Кбит/сек, 48,0 КГц
Аудио #3: Polish (Dolby AC3, 2 ch) 192 Кбит/сек, 48,0 КГц
Аудио #4: Russian (Dolby AC3, 2 ch) 192 Кбит/сек, 48,0 КГц
Аудио #5: Espanol (Dolby AC3, 2 ch) 192 Кбит/сек, 48,0 КГц



Title: Мой диск
Size: 4.59 Gb ( 4 814 788 KBytes ) - DVD-9
Enabled regions: 1, 2, 3, 4, 5, 6, 7, 8

VTS_01 :
Play Length: 01:20:14+00:10:20+00:10:48
Video: PAL 16:9 (720x576) VBR, Auto Letterboxed
Audio:
English (Dolby AC3, 6 ch)
Magyar (Dolby AC3, 6 ch)
Polish (Dolby AC3, 2 ch)
Russian (Dolby AC3, 2 ch)
Espanol (Dolby AC3, 2 ch)
English (Dolby AC3, 2 ch)
Subtitles:
English
Magyar
Polish
Portugues
Russian
Espanol

VTS_02 :
Play Length: 00:00:10+00:00:12
Video: PAL 16:9 (720x576) VBR, Auto Letterboxed
Audio:
Not specified (Dolby AC3, 6 ch)
Subtitles:
Not specified
Общее
Полное имя : F:\Новинки 2011\Zeleniy.Fonar.Izumrudnie.ricari.2011.DVD9\VIDEO_TS\VTS_01_1.VOB
Формат : MPEG-PS
Размер файла : 1024 Мбайт
Продолжительность : 21 м.
Общий поток : 6742 Кбит/сек

Видео
Идентификатор : 224 (0xE0)
Формат : MPEG Video
Версия формата : Version 2
Профиль формата : Main@Main
Параметр BVOP формата : Да
Параметр матрицы формата : По умолчанию
Продолжительность : 21 м.
Вид битрейта : Переменный
Битрейт : 5264 Кбит/сек
Ширина : 720 пикс.
Высота : 576 пикс.
Соотношение сторон : 16:9
Частота кадров : 25,000 кадр/сек
Стандарт вещания : PAL
Цветовое пространство : YUV
Подвыборка цветности : 4:2:0
Битовая глубина : 8 бит
Метод сжатия : С потерями
Бит/(Пиксели*Кадры) : 0.508
Размер потока : 799 Мбайт (78%)

Аудио #1
Идентификатор : 189 (0xBD)-128 (0x80)
Формат : AC-3
Формат/Информация : Audio Coding 3
Расширение режима : CM (complete main)
Режим смешивания : DVD-Video
Продолжительность : 21 м.
Вид битрейта : Постоянный
Битрейт : 384 Кбит/сек
Канал(ы) : 6 канала(ов)
Расположение каналов : Front: L C R, Side: L R, LFE
Частота : 48,0 КГц
Битовая глубина : 16 бит
Метод сжатия : С потерями
Размер потока : 58,3 Мбайт (6%)

Аудио #2
Идентификатор : 189 (0xBD)-129 (0x81)
Формат : AC-3
Формат/Информация : Audio Coding 3
Расширение режима : CM (complete main)
Режим смешивания : DVD-Video
Продолжительность : 21 м.
Вид битрейта : Постоянный
Битрейт : 384 Кбит/сек
Канал(ы) : 6 канала(ов)
Расположение каналов : Front: L C R, Side: L R, LFE
Частота : 48,0 КГц
Битовая глубина : 16 бит
Метод сжатия : С потерями
Задержка видео : -74 мс.
Размер потока : 58,3 Мбайт (6%)

Аудио #3
Идентификатор : 189 (0xBD)-130 (0x82)
Формат : AC-3
Формат/Информация : Audio Coding 3
Расширение режима : CM (complete main)
Режим смешивания : DVD-Video
Продолжительность : 21 м.
Вид битрейта : Постоянный
Битрейт : 192 Кбит/сек
Канал(ы) : 2 канала(ов)
Расположение каналов : Front: L R
Частота : 48,0 КГц
Битовая глубина : 16 бит
Метод сжатия : С потерями
Размер потока : 29,2 Мбайт (3%)

Аудио #4
Идентификатор : 189 (0xBD)-131 (0x83)
Формат : AC-3
Формат/Информация : Audio Coding 3
Профиль формата : Dolby Digital
Расширение режима : CM (complete main)
Режим смешивания : DVD-Video
Продолжительность : 21 м.
Вид битрейта : Постоянный
Битрейт : 192 Кбит/сек
Канал(ы) : 2 канала(ов)
Расположение каналов : Front: L R
Частота : 48,0 КГц
Битовая глубина : 16 бит
Метод сжатия : С потерями
Задержка видео : -74 мс.
Размер потока : 29,2 Мбайт (3%)

Аудио #5
Идентификатор : 189 (0xBD)-132 (0x84)
Формат : AC-3
Формат/Информация : Audio Coding 3
Профиль формата : Dolby Digital
Расширение режима : CM (complete main)
Режим смешивания : DVD-Video
Продолжительность : 21 м.
Вид битрейта : Постоянный
Битрейт : 192 Кбит/сек
Канал(ы) : 2 канала(ов)
Расположение каналов : Front: L R
Частота : 48,0 КГц
Битовая глубина : 16 бит
Метод сжатия : С потерями
Задержка видео : -74 мс.
Размер потока : 29,2 Мбайт (3%)










piratbit.org



Скачать Зеленый Фонарь: Изумрудные рыцари через торрент http://i3.imageban.ru/out/2011/06/10/624493d3fa9853cb8060ccebcce5e7ae.png Скачать фильм Зеленый Фонарь: Изумрудные рыцари через торрент бесплантно в хорошем качестве Описание: Этот полнометражный анимационный фильм по Вселенной DC Comics открывает нам богатую мифологию мира Зеленого Фонаря в шести ... 10 10 1
Info! Золотая раздача, скачанное не засчитывается.
Торрент: Зарегистрирован [2011-06-10 18:03] · скачан: 110 раз
Статус: √ проверено
Размер: 4.59 GB
Как cкачать? Как скачать Зеленый Фонарь: Изумрудные рыцари через торрент | qTorrent

28-11-2019 20:33  

Отключить всю рекламу на сайте

    Дорогой пользователь! Огромная просьба, поблагодарите релизера, оцените раздачу и оставьте свои комментарий, если Вы скачали Зеленый Фонарь: Изумрудные рыцари через торрент бесплатно! Внесите свою лепту в развитие PiratBit!
    Комментировать посты могут только пользователи прошедшие не сложную регистрацию
    Показать сообщения:    

    Зеленый Фонарь: Изумрудные рыцари через торрент
    Скачать бесплатно Зеленый Фонарь: Изумрудные рыцари
    Зеленый Фонарь: Изумрудные рыцари скачать торрент
    Зеленый Фонарь: Изумрудные рыцари смотреть онлайн
    Cкачать фильм Зеленый Фонарь: Изумрудные рыцари бесплатно
    Зеленый Фонарь: Изумрудные рыцари скачать торрент в хорошем качестве
    Зеленый Фонарь: Изумрудные рыцари смотреть онлайн бесплатно в хорошем качестве


    Вы не можете начинать темы
    Вы не можете отвечать на сообщения
    Вы не можете редактировать свои сообщения
    Вы не можете удалять свои сообщения
    Вы не можете голосовать в опросах
    Вы не можете прикреплять файлы к сообщениям
    Вы можете скачивать файлы