новый адрес
Мега распродажа FORZA HORIZON 4 ULTIMATE+ВСЕ DLC+ОНЛАЙН всего за 499р. 349 руб. (супер цена). Внимание количество ограничено!!!

iTunes

1+1

iTunes

мы

iTunes

1

iTunes

Чернобыль

iTunes

Ральф против интернета

Лицензия

ПШазам

Лицензия

Оно 2

Лицензия

30
pack

ВАЖНО

!!Акция!!

Alien_RageХит недели

RePack

Resident Evil 21

ИГРА 18+

pack

RePack

Metro:Exodus

!!Акция!!

Alien_Rage

RePack

fifa19

RePack

Assassins Creed: Odyssey

RePack

NEED FOR SPEED™ PAYBACK

3 сезон

9 сезон

Бесстыжие 9 сезон

Все сериалы

все сериалы на PB.wtf

RePack

FAR CRY 5
Ребята, катастрофически не хватает 1900р. для оплаты серверов за Октябрь (всвязи с блокировками трафик упал в 3 раза), 1-2р., выручайте.
  

Как приручить медведя / Den kæmpestore bjщorn (Эсбен Тофт Якобсен / Esben Toft Jacobsen) [2011, Дания, мультфильм, фэнтези, драма, приключения, семейный, DVD5] R5 «CP-Digital» piratbit.org

Как приручить медведя через торрент piratbit.org

Размер: 4.36 GB | Добавлен: 8 лет 4 мес. назад | Торрент скачан:203 раза
Скачать  

21-06-2011 18:19 Как приручить медведя Скачать торрент  

[font="Georgia"]
Как приручить медведя / Den kæmpestore bjщorn
Страна: Дания
Студия: Copenhagen Bombay
Жанр: мультфильм, фэнтези, драма, приключения, семейный
Год выпуска: 2011
Мировая премьера: 10 февраля 2011
Дата выхода DVD: 23 июня 2011, «CP-Digital»
Продолжительность: 01:13:15
Перевод: Профессиональный (многоголосый закадровый) [Лицензия]
Cубтитры: нет
Оригинальная аудиодорожка: датский
Режиссер: Эсбен Тофт Якобсен / Esben Toft Jacobsen
В ролях: Маркус Рюгорд, Флемминг Квист Мюллер и др.
Описание: Джонатану 11 лет. Каждые летние каникулы он проводит у дедушки, который живет на краю дремучего леса. В этом году компанию ему составит младшая сестра София. За этой непоседой так сложно уследить! Но однажды сестренку похищает гигантский 1000-летний медведь. Джонатан отправляется в самое сердце леса, и хотя у него самого душа уходит в пятки, мальчик намерен вырвать Софию из медвежьих лап. А может быть в зеленой чаще есть кто-то пострашнее косолапого великана?
Бонусы: Каталог, Смотрите на DVD

Качество: DVD5 R5
Формат: DVD-Video
Видео кодек: MPEG2
Аудио кодек: AC3
Видео: PAL 16:9 (720x576(0.626)) MPEG Video,25,000 кадр/сек, 6489 Кбит/сек
Аудио #1: Russian (Dolby AC3, 6 ch) 448 Кбит/сек, 48,0 КГц
Аудио #2: Dansk (Dolby AC3, 6 ch) 448 Кбит/сек, 48,0 КГц



Title: Мой диск
Size: 4.36 Gb ( 4 571 138 KBytes ) - DVD-5
Enabled regions: 1, 2, 3, 4, 5, 6, 7, 8

VTS_01 :
Play Length: 00:00:05
Video: PAL 4:3 (720x576) VBR

VTS_02 :
Play Length: 00:00:15
Video: PAL 16:9 (720x576) VBR, Auto Letterboxed
Audio:
Not specified (Dolby AC3, 6 ch)
Not specified (Dolby AC3, 6 ch)
Subtitles:
Not specified

VTS_03 :
Play Length: 00:01:53
Video: PAL 16:9 (720x576) VBR, Auto Letterboxed
Audio:
Not specified (Dolby AC3, 2 ch)
Not specified (Dolby AC3, 2 ch)
Subtitles:
Not specified

VTS_04 :
Play Length: 01:13:15
Video: PAL 16:9 (720x576) VBR, Auto Letterboxed
Audio:
Russian (Dolby AC3, 6 ch)
Dansk (Dolby AC3, 6 ch)

VTS_05 :
Play Length: 00:01:46
Video: PAL 16:9 (720x576) VBR, Auto Letterboxed
Audio:
Not specified (Dolby AC3, 2 ch)
Subtitles:
Not specified

VTS_06 :
Play Length: 00:01:33
Video: PAL 16:9 (720x576) VBR, Auto Letterboxed
Audio:
Not specified (Dolby AC3, 2 ch)
Subtitles:
Not specified

VTS_07 :
Play Length: 00:03:00
Video: PAL 16:9 (720x576) VBR, Auto Letterboxed
Audio:
Not specified (Dolby AC3, 2 ch)
Subtitles:
Not specified

VTS_08 :
Play Length: 00:01:32
Video: PAL 16:9 (720x576) VBR, Auto Letterboxed
Audio:
Not specified (Dolby AC3, 2 ch)
Subtitles:
Not specified
Общее
Полное имя : F:\Новинки 2011\Kak.Priruchit.Medvedja.2011.DVD5\VIDEO_TS\VTS_04_2.VOB
Формат : MPEG-PS
Размер файла : 1024 Мбайт
Продолжительность : 18 м.
Общий поток : 7535 Кбит/сек

Видео
Идентификатор : 224 (0xE0)
Формат : MPEG Video
Версия формата : Version 2
Профиль формата : Main@Main
Параметр BVOP формата : Да
Параметр матрицы формата : Выборочная
Параметры GOP формата : M=3, N=15
Продолжительность : 18 м.
Вид битрейта : Переменный
Битрейт : 6489 Кбит/сек
Номинальный битрейт : 8000 Кбит/сек
Ширина : 720 пикс.
Высота : 576 пикс.
Соотношение сторон : 4:3
Частота кадров : 25,000 кадр/сек
Стандарт вещания : PAL
Цветовое пространство : YUV
Подвыборка цветности : 4:2:0
Битовая глубина : 8 бит
Тип развёртки : Чересстрочная
Порядок развёртки : Нижнее поле первое
Метод сжатия : С потерями
Бит/(Пиксели*Кадры) : 0.626
Размер потока : 882 Мбайт (86%)

Аудио #1
Идентификатор : 189 (0xBD)-128 (0x80)
Формат : AC-3
Формат/Информация : Audio Coding 3
Расширение режима : CM (complete main)
Режим смешивания : DVD-Video
Продолжительность : 18 м.
Вид битрейта : Постоянный
Битрейт : 448 Кбит/сек
Каналы : 6 каналов
Расположение каналов : Front: L C R, Side: L R, LFE
Частота : 48,0 КГц
Битовая глубина : 16 бит
Метод сжатия : С потерями
Задержка видео : -638 мс.
Размер потока : 60,9 Мбайт (6%)

Аудио #2
Идентификатор : 189 (0xBD)-129 (0x81)
Формат : AC-3
Формат/Информация : Audio Coding 3
Расширение режима : CM (complete main)
Режим смешивания : DVD-Video
Продолжительность : 18 м.
Вид битрейта : Постоянный
Битрейт : 448 Кбит/сек
Каналы : 6 каналов
Расположение каналов : Front: L C R, Side: L R, LFE
Частота : 48,0 КГц
Битовая глубина : 16 бит
Метод сжатия : С потерями
Задержка видео : -638 мс.
Размер потока : 60,9 Мбайт (6%)










piratbit.org



Скачать Как приручить медведя через торрент http://i2.imageban.ru/out/2011/06/21/07d8724c11ca53d61ffcce9079bde34c.jpg Скачать фильм Как приручить медведя через торрент бесплантно в хорошем качестве Описание: Джонатану 11 лет. Каждые летние каникулы он проводит у дедушки, который живет на краю дремучего леса. В этом году компанию ему ... 4.3 10 9
Info! Золотая раздача, скачанное не засчитывается.
Торрент: Зарегистрирован [2011-06-21 18:19] · скачан: 203 раз
Статус: √ проверено
Размер: 4.36 GB
Как cкачать? Как скачать Как приручить медведя через торрент | qTorrent


>> Регистрируемся здесь <<






Отзывы и комментарии о схеме читаем и пишем здесь: ---> Отзывы и комментарии о схеме

Новые благодарочки в телеграм довольных пользователей:
скриншот   скриншот   скриншот   скриншот   скриншот

31-08-2011 21:41 Как приручить медведя Скачать торрент  

С мелкой по смотрел пойдетpiratbit.org



    Дорогой пользователь! Огромная просьба, поблагодарите релизера, оцените раздачу и оставьте свои комментарий, если Вы скачали Как приручить медведя через торрент бесплатно! Внесите свою лепту в развитие PiratBit!
    Комментировать посты могут только пользователи прошедшие не сложную регистрацию
    Показать сообщения:    

    Как приручить медведя через торрент
    Скачать бесплатно Как приручить медведя
    Как приручить медведя скачать торрент
    Как приручить медведя смотреть онлайн
    Cкачать фильм Как приручить медведя бесплатно
    Как приручить медведя скачать торрент в хорошем качестве
    Как приручить медведя смотреть онлайн бесплатно в хорошем качестве


    Вы не можете начинать темы
    Вы не можете отвечать на сообщения
    Вы не можете редактировать свои сообщения
    Вы не можете удалять свои сообщения
    Вы не можете голосовать в опросах
    Вы не можете прикреплять файлы к сообщениям
    Вы можете скачивать файлы