Anonymous, добрый день, присоединяйтесь к нам в Telegram!, здесь всегда актуальный адрес сайта, оперативная поддержка и многое другое!

>

5.6

iTunes

7.4

iTunes

5.7

MVO

1

7.7

1 сезон

6.8

iTunes

7.3

1 сезон

13

6.7

1 сезон

8.3

RePack

30

ULTIMATE

pack

9.9

Лицензия

ВАЖНО

ИГРА 18+

pack

7.3

RePack

MK11

7.7

RePack

jed

7.8

RePack

fifa19

8.5

RePack

RDR2

RePack

NEED FOR SPEED™ PAYBACK

4 сезон

9 сезон

Бесстыжие 9 сезон

Все сериалы

все сериалы на PB.wtf

RePack

FAR CRY 5

Anonymous, добрый день, мы катастрофически не успеваем собрать деньги на оплату серверов, помогите нам пожалуйста 5,10,15р., для нас важна любая помощь . В качестве благодарности мы отключим Вам всю рекламу на сайте (укажите свой ник в строку Ваше имя)!

×
  
Magnet ссылка

Перепутанные (Их перепутали в роддоме) Switched At Birth / 1 сезон (9 серий из 10) (Майкл Ланж, Стив Майнер) [2011 г., Драма, семейный, WEB-DLRip] piratbit.org

Перепутанные через торрент piratbit.org

Размер: 4.05 GB | Добавлен: 9 лет назад | Торрент скачан:1 раз
Смотреть онлайн Перепутанные | Скачать    Ребята, помогите собрать деньги на оплату серверов!!!

22-06-2011 20:41 Перепутанные Скачать торрент  

Перепутанные (Их перепутали в роддоме)
Switched At Birth/ 1 сезон (9 серии из 10)
Год выпуска: 2011
Страна: США
Жанр: Драма, семейный
Продолжительность: ~00:44:00
Перевод: Любительский (многолосый закадровый)

Режиссер: Майкл Ланж, Стив Майнер
Сценарий:Чад Файвэш, Лиззи Уайсс
Продюсер:Дэвид Хартл, Лиззи Уайсс, Шоун Вилт
Оператор:Дарин Окада
Художник:Грег Дж. Гранде, Дэниэл Мальтезе, Ричард Дж. Рамирез мл.

Премьера в мире: 6 июня 2011

В ролях: Кэти Леклерк, Ванесса Марано, Шон Берди, Лукас Грабил, Констанс Мари, Лиа Томпсон, Д.В. Моффетт, Чарльз Майкл Дэвис, Блэр Редфорд, Стивен Коннор и др.


Описание: Сериал рассказывает историю о двух девочка-подростках, которые узнают, что случайно при рождении их перепутали и они отправились домой не к своим родителям. Бэй Кенниш выросла в роскоши в благополучной семье, в то время как Дафни Васкез, потерявшая слух в раннем детстве, была воспитана матерью-одиночкой в бедности. Ради счастья этих девочек два абсолютно разных мира должны ужиться вместе.

Качество: WEB-DLRip
Формат: AVI
Видео кодек: XviD
Аудио кодек: MP3
Видео: 720x400 (1.80:1); 0.173 bit/pixel; 23.976 fps; 1200 kbps
Аудио Rus: 48 kHz; 2 ch (стерео); 128 kbps
Аудио Eng: 48 kHz; 2 ch (стерео); 128 kbps



Перевод:: notabenoid, _BanShie_
Озвучка:: NEMIROFF_, Скетчер, Grosvenor, Sonyks13, Саша Коренева
Субтитры, сведение и мастеринг:: Grosvenor
E:\ЗАГРУЗКА\Перепутанные Switched At Birth\02.avi
General
Complete name : E:\ЗАГРУЗКА\Перепутанные Switched At Birth\02.avi
Format : AVI
Format/Info : Audio Video Interleave
File size : 458 MiB
Duration : 45mn 14s
Overall bit rate : 1 416 Kbps
Video #0
ID : 0
Format : MPEG-4 Visual
Format profile : Advanced Simple@L5
Format settings, BVOP : Yes
Format settings, QPel : No
Format settings, GMC : No warppoints
Format settings, Matrix : Default (H.263)
Muxing mode : Packed bitstream
Codec ID : XVID
Codec ID/Hint : XviD
Duration : 43mn 43s
Bit rate : 1 195 Kbps
Width : 720 pixels
Height : 400 pixels
Display aspect ratio : 16:9
Frame rate : 23.976 fps
Resolution : 8 bits
Colorimetry : 4:2:0
Scan type : Progressive
Bits/(Pixel*Frame) : 0.173
Stream size : 374 MiB (82%)
Writing library : XviD 1.2.1 (UTC 2008-12-04)
Audio #1
ID : 1
Format : MPEG Audio
Format version : Version 1
Format profile : Layer 3
Codec ID : 55
Codec ID/Hint : MP3
Duration : 43mn 43s
Bit rate mode : Constant
Bit rate : 128 Kbps
Channel(s) : 2 channels
Sampling rate : 48.0 KHz
Stream size : 40.0 MiB (9%)
Alignment : Aligned on interleaves
Interleave, duration : 42 ms (1.00 video frame)
Audio #2
ID : 2
Format : MPEG Audio
Format version : Version 1
Format profile : Layer 3
Codec ID : 55
Codec ID/Hint : MP3
Duration : 45mn 14s
Bit rate mode : Constant
Bit rate : 128 Kbps
Channel(s) : 2 channels
Sampling rate : 48.0 KHz
Stream size : 40.0 MiB (9%)
Alignment : Aligned on interleaves
Interleave, duration : 42 ms (1.00 video frame)
01. This Is Not a Pipe
02. American Gothic
03. Portrait of My Father
04. Dance Amongst Daggers
05. Dogs Playing Poker
06. The Persistence of Memory
07. The Stag Hunt
08. Pandora 1896
09. Paradise Lost - выходит 1 августа
10. The Homecoming - выходит ?
Внимание! Раздача ведётся путём добавления новых серий; при каждом добавлении создётся новый торрент. Чтобы начать докачку новой серии, вам необходимо сделать следующее:
1. Остановить скачивание.
2. Удалить старый торрент у себя из клиента (старые серии удалять не надо).
3. Скачать новый торрент и запустить его у себя в клиенте вместо старого, при этом указать клиенту путь в старую папку куда и должно происходить скачивание новых серий.
Ваш клиент при этом должен произвести хеширование (проверку) старой папки (если не производит сам - помогите ему сделать это), и будет докачивать только те серии которых у вас ещё нет. Старые серии при этом не удаляются, а продолжают раздаваться!
Eсли вы уже удалили старые серии, то предотвратить повторную закачку старых серий можно, отжав галочку в соответсвующих местах при запуске нового торрента.


Добавлена 9 серия.piratbit.org



Скачать Перепутанные через торрент http://i23.fastpic.ru/big/2011/0623/e6/3f543f69e09bef933097b7f1ea3911e6.png Скачать, смотреть онлайн Перепутанные бесплантно в хорошем качестве Описание: Сериал рассказывает историю о двух девочка-подростках, которые узнают, что случайно при рождении их перепутали и они отправились ... 5 10 1
Info! Золотая раздача, скачанное не засчитывается.
Торрент: Зарегистрирован [2011-11-05 08:41] · скачан: 1 раз
Статус: √ проверено
Размер: 4.05 GB
Как cкачать? Как скачать Перепутанные через торрент | UTorrent

% Раздел Тема Автор DL S | L
Наши сериалы [ 20.01 GB ] Перепутанные / Сезон: 1 / Серии: 1-16 из 16 [2017 Мело WEBRip 720p] bober100 Скачать
1 | 0
Наши сериалы [ 28.69 GB ] Перепутанные / Сезон: 1 / Серии: 1-16 из 16 [2017 Мело WEB-DL 1080p] bober100 Скачать
1 | 0
Наши сериалы [ 9.38 GB ] Перепутанные / Сезон: 1 / Серии: 1-16 из 16 [2017 Мело WEBRip] bober100 Скачать
1 | 0
Фильмы с авторской озвучкой [ 1.47 GB ] Перепутанные наследники / Splitting Heirs [1993 DVDRip] [AVO] killermax2013 Скачать
1 | 0
T Зарубежные сериалы [ 4.46 GB ] Их перепутали в роддоме / Перепутанные / Switched At Birth / Серии: 1-10 из 32 [2011 WEB-DLRip Любительский ] markfiter Скачать
1 | 0


Последний раз редактировалось: lyokaa (2011-11-05 08:41), всего редактировалось 10 раз(а)

28-11-2019 20:33  

Отключить всю рекламу на сайте

02-07-2011 10:24 Перепутанные Скачать торрент  

Добавлена 3 серия.piratbit.org



11-07-2011 06:20 Перепутанные Скачать торрент  

Добавлена 4 серия.piratbit.org



20-07-2011 19:35 Перепутанные Скачать торрент  

Добавлена 5серия.piratbit.org



17-09-2011 11:48 Перепутанные Скачать торрент  

Добавлена 6-7 серии.piratbit.org



28-10-2011 08:12 Перепутанные Скачать торрент  

Добавлена 8 серия.piratbit.org



05-11-2011 08:42 Перепутанные Скачать торрент  

Добавлена 9 серия.piratbit.org



    Дорогой пользователь! Огромная просьба, поблагодарите релизера, оцените раздачу и оставьте свои комментарий, если Вы скачали Перепутанные через торрент бесплатно!
    Комментировать посты могут только пользователи прошедшие не сложную регистрацию
    Показать сообщения:    

    Перепутанные через торрент
    Скачать бесплатно Перепутанные
    Перепутанные скачать торрент
    Перепутанные смотреть онлайн
    Cкачать фильм Перепутанные бесплатно
    Перепутанные скачать торрент в хорошем качестве
    Перепутанные смотреть онлайн бесплатно в хорошем качестве


    Вы не можете начинать темы
    Вы не можете отвечать на сообщения
    Вы не можете редактировать свои сообщения
    Вы не можете удалять свои сообщения
    Вы не можете голосовать в опросах
    Вы не можете прикреплять файлы к сообщениям
    Вы можете скачивать файлы