1 сезон

iTunes

iTunes

1

Line

MVO

iTunes

13

1 сезон

RePack

30

Deluxe

pack

Лицензия

ВАЖНО

ИГРА 18+

pack

RePack

MK11

RePack

jed

RePack

fifa19

RePack

RDR2

RePack

NEED FOR SPEED™ PAYBACK

4 сезон

9 сезон

Бесстыжие 9 сезон

Все сериалы

все сериалы на PB.wtf

RePack

FAR CRY 5

Anonymous, добрый день, мы катастрофически не успеваем собрать деньги на оплату серверов, помогите нам пожалуйста 5,10,15р., для нас важна любая помощь . В качестве благодарности мы отключим Вам всю рекламу на сайте (укажите свой ник в строку Ваше имя)!

×
  
Magnet ссылка

Ярость / Slow Burn (Вейн Бич) [2005 г., триллер, драма, детектив, DVDRip, лицензия] piratbit.org

Ярость через торрент piratbit.org

Размер: 702 MB | Добавлен: 10 лет назад | Торрент скачан:21 раз
Скачать  

04-07-2011 16:53 Ярость Скачать торрент  

Ярость / Slow Burn

Год выпуска: 2005
Страна: США
Жанр: триллер, драма, детектив
Продолжительность: 1ч 28мин
Перевод: Профессиональный (многоголосый, закадровый)
Тип релиза: Лицензия

Режиссер: Вейн Бич
Продюссер: Бонни Тиммермэнн, Энтони Уолтон, Тим Уильямс,
Сценарий: Вейн Бич, Энтони Уолтон

Бюджет: $15 500 000
Премьера в мире: 13 сентября 2005,

MPAA; R
IMDB; 5.80 (2 497)
http://www.kinopoisk.ru/level/1/film/61184/

В ролях: Рэй Лиотта. LL Кул Джей. Мехи Файфер. Джолин Блэлок. Гай Торри. Тэй Диггз. Чиветел Эджиофор. Брюс МакГилл. Фрэнк Скорпион. Донни Фалсетти

Описание: Помощник прокурора Нора Тинмер просит защиты у полиции, после того как в ее постели находят мертвого мужчину. Но в полицейское управление поступает информация от таинственного незнакомца, полностью отличающаяся от ее рассказа.

И теперь, прокурор Форд Коул должен в течении 24 часов с риском для жизни, раскрыть эту таинственную историю в лабиринте предательств и сюрпризов криминального мира…

Доп. информация:
Полное имя : D:\кино\Jarost_DVDRip.avi
Формат : AVI
Формат/Информация : Audio Video Interleave
Размер файла : 702 Мбайт
Продолжительность : 1 ч. 28 м.
Общий поток : 1105 Кбит/сек
Название фильма : Ярость / Slow Burn (2005)
Правообладатель : HeDgEhOt®

Видео
Идентификатор : 0
Формат : MPEG-4 Visual
Параметр BVOP формата : 1
Параметр QPel формата : Нет
Параметр GMC формата : Без точки перехода
Параметр матрицы формата : Default (H.263)
Режим смешивания : Сжатый битовый поток
Идентификатор кодека : DX50
Идентификатор кодека/Подсказка : DivX 5
Продолжительность : 1 ч. 28 м.
Битрейт : 999 Кбит/сек
Ширина : 672 пикс.
Высота : 368 пикс.
Соотношение сторон : 16:9
Частота кадров : 25,000 кадр/сек
Цветовое пространство : YUV
Подвыборка цветности : 4:2:0
Битовая глубина : 8 бит
Тип развёртки : Прогрессивная
Метод сжатия : С потерями
Бит/(Пиксели*Кадры) : 0.162
Размер потока : 635 Мбайт (90%)
Библиотека кодирования : DivX 6.6.1.4

Аудио
Идентификатор : 1
Формат : MPEG Audio
Версия формата : Version 1
Профиль формата : Layer 3
Режим : Joint stereo
Расширение режима : MS Stereo
Идентификатор кодека : 55
Идентификатор кодека/Подсказка : MP3
Продолжительность : 1 ч. 28 м.
Вид битрейта : Постоянный
Битрейт : 96,0 Кбит/сек
Канал(ы) : 2 канала(ов)
Частота : 48,0 КГц
Метод сжатия : С потерями
Размер потока : 61,0 Мбайт (9%)
Выравнивание : Соединение по промежуткам
Продолжительность промежутка : 40 мс. (1,00 видеокадр)
Время предзагрузки промежутка : 504 ms
Библиотека кодирования : LAME3.98b
Настройки программы : -m j -V 4 -q 2 -lowpass 16 -b 96
Язык : c
Качество: DVDRip
Формат: AVI
Видео кодек: DivX
Аудио кодек: MP3
Видео: 672x368 (1.83:1), 25 fps, DivX Codec 6.6.1 ~999 kbps avg, 0.16 bit/pixel
Аудио: 48 kHz, MPEG-Audio (MP-3), (Layer 3), 2 ch, ~96.00 kbps avg




piratbit.org



Скачать Ярость через торрент http://i26.fastpic.ru/big/2011/0704/b3/e8e6fa3792ad19dcad42f02dacee6bb3.jpg Скачать фильм Ярость через торрент бесплантно в хорошем качестве Описание: Помощник прокурора Нора Тинмер просит защиты у полиции, после того как в ее постели находят мертвого мужчину. Но в полицейское ... 9 10 1
Info! Золотая раздача, скачанное не засчитывается.
Торрент: Зарегистрирован [2011-07-04 16:53] · скачан: 21 раз
Статус: √ проверено
Размер: 702 MB
Как cкачать? Как скачать Ярость через торрент | UTorrent

28-11-2019 20:33  

Отключить всю рекламу на сайте

    Дорогой пользователь! Огромная просьба, поблагодарите релизера, оцените раздачу и оставьте свои комментарий, если Вы скачали Ярость через торрент бесплатно! Внесите свою лепту в развитие PiratBit!
    Комментировать посты могут только пользователи прошедшие не сложную регистрацию
    Показать сообщения:    

    Ярость через торрент
    Скачать бесплатно Ярость
    Ярость скачать торрент
    Ярость смотреть онлайн
    Cкачать фильм Ярость бесплатно
    Ярость скачать торрент в хорошем качестве
    Ярость смотреть онлайн бесплатно в хорошем качестве


    Вы не можете начинать темы
    Вы не можете отвечать на сообщения
    Вы не можете редактировать свои сообщения
    Вы не можете удалять свои сообщения
    Вы не можете голосовать в опросах
    Вы не можете прикреплять файлы к сообщениям
    Вы можете скачивать файлы